Карнавал по-нашему / Серии: 1-2 из 2 (Леонид Мазор) [2013, Комедия, музыкальный фильм, HDTVRip 720p]

Ответить на тему
 
Автор Сообщение

user ®

Стаж: 7 лет 7 месяцев

Сообщений: 20008

Пост Пост: #1 от 13-Июл-2014 23:10

[Цитировать]

Карнавал по-нашему
Год выпуска: 2013
Производство: Россия, "Единая медиа группа"
Жанр: Комедия, музыкальный фильм
Продолжительность: 00:45:00
Субтитры: нет
Режиссёр:Леонид Мазор
В ролях: Александр Асташёнок, Татьяна Рыбинец, Валерий Афанасьев, Ирина Бякова, Анатолий Калмыков
Описание: История о молодом человеке, живущем в городском мире, со своими законами и увлечениями. Эти «увлечения» приводят героя к ситуации, когда жизнь становится дороже любых приключений. Случайная встреча с простой сельской девушкой в корне меняет всю его жизнь.
Главную роль в ленте играет Александр Асташенок - российский музыкант, актер, бывший солист группы "Корни" и победитель первой "Фабрики Звезд".

Качество: HDTVRip 720p
Формат: MKV
Видео кодек: H.264
Аудио кодек: AC-3
Видео: MPEG4 Video (H264) 1280x720, ~ 4930 kbps, 25.00fps 0.214 bit/pixel
Аудио: AC-3, 2 канала, 48,0 КГц, ~192 kbps
Сторонней рекламы нет!
MI
ОбщееУникальный идентификатор : 197147681372830098346387604053927774079 (0x945143263D6AB989BF08D5883045C77F)Полное имя : H:\Карнавал по-нашему HDTVRip 720p\Карнавал по-нашему 01_серия_HDTVRip_720p.mkvФормат : MatroskaРазмер файла : 1,56 ГбайтПродолжительность : 43 м.Общий поток : 5124 Кбит/секДата кодирования : UTC 2014-07-12 02:33:08Программа кодирования : mkvmerge v6.1.0 ('Old Devil') built on Mar 4 2013 09:10:42Библиотека кодирования : libebml v1.3.0 + libmatroska v1.4.0
ВидеоИдентификатор : 1Формат : AVCФормат/Информация : Advanced Video CodecПрофиль формата : High@L4.1Параметр CABAC формата : ДаПараметр ReFrames формата : 8 кадровИдентификатор кодека : V_MPEG4/ISO/AVCПродолжительность : 43 м.Битрейт : 4930 Кбит/секШирина : 1280 пикс.Высота : 720 пикс.Соотношение сторон : 16:9Частота кадров : 25,000 кадр/секЦветовое пространство : YUVПодвыборка цветности : 4:2:0Битовая глубина : 8 битТип развёртки : ПрогрессивнаяБит/(Пиксели*Кадры) : 0.214Размер потока : 1,47 Гбайт (94%)Библиотека кодирования : x264 core 130 r2273 b3065e6Настройки программы : cabac=1 / ref=8 / deblock=1:-3:-3 / analyse=0x3:0x133 / me=umh / subme=11 / psy=1 / psy_rd=1.00:0.20 / mixed_ref=1 / me_range=32 / chroma_me=1 / trellis=2 / 8x8dct=1 / cqm=0 / deadzone=21,11 / fast_pskip=0 / chroma_qp_offset=-3 / threads=12 / lookahead_threads=3 / sliced_threads=0 / nr=0 / decimate=0 / interlaced=0 / bluray_compat=0 / constrained_intra=0 / bframes=11 / b_pyramid=2 / b_adapt=2 / b_bias=0 / direct=3 / weightb=1 / open_gop=0 / weightp=2 / keyint=250 / keyint_min=25 / scenecut=40 / intra_refresh=0 / rc=2pass / mbtree=0 / bitrate=4930 / ratetol=1.0 / qcomp=0.60 / qpmin=0 / qpmax=69 / qpstep=4 / cplxblur=20.0 / qblur=0.5 / ip_ratio=1.40 / pb_ratio=1.30 / aq=1:0.80
АудиоИдентификатор : 2Формат : AC-3Формат/Информация : Audio Coding 3Расширение режима : CM (complete main)Идентификатор кодека : A_AC3Продолжительность : 43 м.Вид битрейта : ПостоянныйБитрейт : 192 Кбит/секКаналы : 2 каналаРасположение каналов : Front: L RЧастота : 48,0 КГцБитовая глубина : 16 битМетод сжатия : С потерямиРазмер потока : 59,7 Мбайт (4%)
Раздача группы:
Отдельное спасибо nikolspup за предоставление материала.
Внимание ! Раздача ведётся путём добавления новых серий
Внимание! Раздача ведётся путём добавления новых серий; при каждом добавлении создётся новый торрент. Чтобы начать докачку новой серии, пользователям необходимо сделать следующее:
(1) остановить скачивание,
(2) удалить старый торрент у себя из клиента (старые серии удалять не надо),
(3) скачать новый торрент и запустить его у себя в клиенте вместо старого, при этом указать клиенту путь в старую папку куда и должно происходить скачивание новых серий.
Ваш клиент при этом должен произвести хеширование (проверку) старой папки (если не производит сам - помогите ему сделать это), и будет докачивать только те серии которых у вас ещё нет. Старые серии при этом не удаляются, а продолжают раздаваться!
Eсли вы уже удалили старые серии, то предотвратить повторную закачку старых серий можно, отжав галочку в соответсвующих местах при запуске нового торрента. По возможности, желательно не удалять старые серии как можно дольше чтобы релизёр не столько продолжал раздавать старые серии, а смог сконцентрироваться на новых.
ВНИМАНИЕ! ТОРРЕНТ ПЕРЕЗАЛИТ! ДОБАВЛЕНА 2-ая СЕРИИ!Скриншоты
Скачать

Скачать торрент!

Как скачивать? · Что такое торрент? · Рейтинг и ограничения

Сайт не распространяет и не хранит электронные версии произведений, а лишь предоставляет доступ к создаваемому пользователями каталогу ссылок на торрент-файлы, которые содержат только списки хеш-сумм

[Профиль] [ЛС]
Показать сообщения:    
Ответить на тему

Текущее время: Сегодня 13:40

Часовой пояс: GMT + 4



Вы не можете начинать темы
Вы не можете отвечать на сообщения
Вы не можете редактировать свои сообщения
Вы не можете удалять свои сообщения
Вы не можете голосовать в опросах
Вы не можете прикреплять файлы к сообщениям
Вы не можете скачивать файлы