Отец-молодец / Delivery Man (Кен Скотт / Ken Scott) [2013, США, комедия, драма, BDRip 720p] Dub + Original Eng + sub (rus, eng)

Ответить на тему
 
Автор Сообщение

user ®

Стаж: 7 лет 7 месяцев

Сообщений: 20008

Пост Пост: #1 от 13-Июл-2014 20:00

[Цитировать]

Отец-молодец / Delivery Man- Год выпуска: 2013
Страна: США
Жанр: комедия, драма
Продолжительность: 01:44:47
Перевод: Профессиональный (полное дублирование)
Оригинальная звуковая дорожка: English
Cубтитры: Russian (Forced), Russian, English, English (SDH)-Режиссер: Кен Скотт / Ken Scott
В ролях: Винс Вон, Крис Прэтт, Коби Смолдерс, Анджей Блюменфельд, Саймон Делани, Бобби Мойнахан, Дэйв Паттен, Адам Чанлер-Берат, Бритт Робертсон, Джек Рейнор
О фильме: Жизнь бруклинского работяги Дэвида Возняка не похожа на праздник: у него кризис среднего возраста, он должен денег подпольному ростовщику, девушка собирается его бросить, а родной отец грозит увольнением с работы. А в довершение всех бед к нему приходит адвокат с известием о том, что в результате ошибки, которую двадцать лет назад совершили в банке спермы, который Дэвид посещал в студенческие годы, он является биологическим отцом 533 детей. И 142 из них обратились в суд с требованием раскрыть имя своего родителя. Вначале Дэвид не знает, что делать в такой ситуации, но постепенно любопытство перевешивает, и он решает — инкогнито — узнать поближе хотя бы некоторых из своих нежданных потомков…-Формат: MKV
Видео: 1280x534 at 23.976 fps, x264@L4.1, crf, ~5300 kbps avg
Аудио #1: Russian: 48 kHz/16-bit, AC3, 3/2 (L,C,R,l,r) + LFE ch, ~640.00 kbps avg |Дубляж, Blu-Ray|
Аудио #2: English: 48 kHz/24-bit, DTS, 3/2 (L,C,R,l,r) + LFE ch, ~1510.00 kbps avg
Аудио #3: English: 48 kHz/16-bit, AC3, 2/0 (L,R) ch, ~320.00 kbps avg |Descriptive|
Семпл-

Source~Encode mInfo

Формат : Matroska
Версия формата : Version 2
Размер файла : 5,65 Гбайт
Продолжительность : 1 ч. 44 м.
Общий поток : 7713 Кбит/сек
Название фильма : Отец-молодец / Delivery Man (2013)
Дата кодирования : UTC 2014-03-18 22:20:55
Программа кодирования : mkvmerge v5.8.0 ('No Sleep / Pillow') built on Sep 2 2012 15:37:04
Библиотека кодирования : libebml v1.2.3 + libmatroska v1.3.0
Attachment : Yes
Видео
Идентификатор : 1
Формат : AVC
Формат/Информация : Advanced Video Codec
Профиль формата : High@L4.1
Параметр CABAC формата : Да
Параметр ReFrames формата : 9 кадров
Идентификатор кодека : V_MPEG4/ISO/AVC
Продолжительность : 1 ч. 44 м.
Битрейт : 5090 Кбит/сек
Ширина : 1280 пикселей
Высота : 534 пикселя
Соотношение сторон : 2,40:1
Режим частоты кадров : Постоянный
Частота кадров : 23,976 кадра/сек
Цветовое пространство : YUV
Субдискретизация насыщенности : 4:2:0
Битовая глубина : 8 бит
Тип развёртки : Прогрессивная
Бит/(Пиксели*Кадры) : 0.311
Размер потока : 3,73 Гбайт (66%)
Заголовок : Release for HDCLUB [by N1NT3NDO]
Библиотека кодирования : x264 core 142 r2389+41 02cb608 tMod [8-bit@4:2:0 X86_64]
Настройки программы : cabac=1 / ref=9 / deblock=1:-3:-3 / analyse=0x3:0x133 / me=umh / subme=11 / psy=1 / fade_compensate=0.00 / psy_rd=1.05:0.00 / mixed_ref=1 / me_range=32 / chroma_me=1 / trellis=2 / 8x8dct=1 / cqm=0 / deadzone=21,11 / fast_pskip=0 / chroma_qp_offset=-2 / threads=12 / lookahead_threads=3 / sliced_threads=0 / nr=0 / decimate=1 / interlaced=0 / bluray_compat=0 / constrained_intra=0 / fgo=0 / bframes=10 / b_pyramid=2 / b_adapt=2 / b_bias=0 / direct=1 / weightb=1 / open_gop=0 / weightp=2 / keyint=240 / keyint_min=23 / scenecut=40 / intra_refresh=0 / rc_lookahead=80 / rc=crf / mbtree=0 / crf=16.0000 / qcomp=0.60 / qpmin=0:0:0 / qpmax=69:69:69 / qpstep=4 / vbv_maxrate=50000 / vbv_bufsize=62500 / crf_max=0.0 / nal_hrd=none / filler=0 / ip_ratio=1.40 / pb_ratio=1.30 / aq=2:1.00 / aq-sensitivity=10.00 / aq-factor=1.00:1.00:1.00 / aq2=0 / aq3=0
Язык : English
Default : Да
Forced : Нет
Аудио #1
Идентификатор : 2
Формат : AC-3
Формат/Информация : Audio Coding 3
Расширение режима : CM (complete main)
Параметр Endianness формата : Big
Идентификатор кодека : A_AC3
Продолжительность : 1 ч. 44 м.
Вид битрейта : Постоянный
Битрейт : 640 Кбит/сек
Каналы : 6 каналов
Расположение каналов : Front: L C R, Side: L R, LFE
Частота : 48,0 КГц
Битовая глубина : 16 бит
Метод сжатия : С потерями
Размер потока : 480 Мбайт (8%)
Заголовок : Дубляж, Blu-Ray [48 kHz/16-bit, AC3, 3/2 (L,C,R,l,r) + LFE ch, ~640.00 kbps avg]
Язык : Russian
Default : Да
Forced : Нет
Аудио #2
Идентификатор : 3
Формат : DTS
Формат/Информация : Digital Theater Systems
Режим : 16
Параметр Endianness формата : Big
Идентификатор кодека : A_DTS
Продолжительность : 1 ч. 44 м.
Вид битрейта : Постоянный
Битрейт : 1509 Кбит/сек
Каналы : 6 каналов
Расположение каналов : Front: L C R, Side: L R, LFE
Частота : 48,0 КГц
Битовая глубина : 24 бит
Метод сжатия : С потерями
Размер потока : 1,11 Гбайт (20%)
Заголовок : Оригинал [48 kHz/24-bit, DTS, 3/2 (L,C,R,l,r) + LFE ch, ~1510.00 kbps avg]
Язык : English
Default : Нет
Forced : Нет
Аудио #3
Идентификатор : 4
Формат : AC-3
Формат/Информация : Audio Coding 3
Профиль формата : Dolby Digital
Расширение режима : CM (complete main)
Параметр Endianness формата : Big
Идентификатор кодека : A_AC3
Продолжительность : 1 ч. 44 м.
Вид битрейта : Постоянный
Битрейт : 320 Кбит/сек
Каналы : 2 канала
Расположение каналов : Front: L R
Частота : 48,0 КГц
Битовая глубина : 16 бит
Метод сжатия : С потерями
Размер потока : 240 Мбайт (4%)
Заголовок : Descriptive [48 kHz/16-bit, AC3, 2/0 (L,R) ch, ~320.00 kbps avg]
Язык : English
Default : Нет
Forced : Нет
Текст #1
Идентификатор : 5
Формат : UTF-8
Идентификатор кодека : S_TEXT/UTF8
Идентификатор кодека/Информация : UTF-8 Plain Text
Заголовок : Russian (Forced)
Язык : Russian
Default : Да
Forced : Да
Текст #2
Идентификатор : 6
Формат : UTF-8
Идентификатор кодека : S_TEXT/UTF8
Идентификатор кодека/Информация : UTF-8 Plain Text
Заголовок : Russian
Язык : Russian
Default : Нет
Forced : Нет
Текст #3
Идентификатор : 7
Формат : UTF-8
Идентификатор кодека : S_TEXT/UTF8
Идентификатор кодека/Информация : UTF-8 Plain Text
Заголовок : English
Язык : English
Default : Нет
Forced : Нет
Текст #4
Идентификатор : 8
Формат : UTF-8
Идентификатор кодека : S_TEXT/UTF8
Идентификатор кодека/Информация : UTF-8 Plain Text
Заголовок : English (SDH)
Язык : English
Default : Нет
Forced : Нет
Меню
00:00:00.000 : :00:00:00.000
00:04:12.335 : :00:04:12.335
00:10:42.392 : :00:10:42.392
00:15:03.861 : :00:15:03.861
00:21:04.054 : :00:21:04.054
00:27:42.494 : :00:27:42.494
00:35:00.557 : :00:35:00.557
00:40:03.401 : :00:40:03.401
00:45:06.287 : :00:45:06.287
00:51:59.116 : :00:51:59.116
00:58:35.011 : :00:58:35.011
01:04:47.217 : :01:04:47.217
01:07:59.325 : :01:07:59.325
01:15:05.126 : :01:15:05.126
01:20:11.223 : :01:20:11.223
01:24:59.678 : :01:24:59.678
01:30:48.318 : :01:30:48.318
01:39:56.490 : :01:39:56.490
-
Скачать

Скачать торрент!

Как скачивать? · Что такое торрент? · Рейтинг и ограничения

Сайт не распространяет и не хранит электронные версии произведений, а лишь предоставляет доступ к создаваемому пользователями каталогу ссылок на торрент-файлы, которые содержат только списки хеш-сумм

[Профиль] [ЛС]
Показать сообщения:    
Ответить на тему

Текущее время: Сегодня 11:38

Часовой пояс: GMT + 4



Вы не можете начинать темы
Вы не можете отвечать на сообщения
Вы не можете редактировать свои сообщения
Вы не можете удалять свои сообщения
Вы не можете голосовать в опросах
Вы не можете прикреплять файлы к сообщениям
Вы не можете скачивать файлы