Обливион / Oblivion (Джозеф Косински / Joseph Kosinski) [2013, США, фантастика, боевик, мелодрама, HDTV 1080i] [Open Matte] Dub

Ответить на тему
 
Автор Сообщение

user ®

Стаж: 7 лет 7 месяцев

Сообщений: 20008

Пост Пост: #1 от 13-Июл-2014 20:00

[Цитировать]

Обливион / Oblivion-Open Matte - версия Страна: США
Студия: Universal Pictures
Жанр: фантастика, боевик, триллер, приключения, мелодрама
Год выпуска: 2013
Продолжительность: 01:59:14
Перевод: Профессиональный (дублированный)
Cубтитры: нет
Оригинальная аудиодорожка: нет
Режиссер: Джозеф Косински / Joseph Kosinski
В ролях: Том Круз, Ольга Куриленко, Андреа Райзборо, Морган Фриман, Николай Костер-Вальдау, Мелисса Лео, Зои Белл, Эбигейл Лоу, Изабель Лоу, Дэвид Мэдисон
Описание: Земля, пережившая войну с инопланетными захватчиками, опустела; остатки человечества готовятся покинуть непригодную для жизни планету. Главный герой — техник по обслуживанию дронов — находит разбившийся корабль NASA, команда которого погибает у него на глазах. Ему удаётся спасти лишь одну женщину — и вскоре он понимает, что это перевернёт его жизнь.
Доп. информация: Данная версия отличается наполнением кадра - 16:9 http://screenshotcomparison.com/comparison/83336/-SAMPLE-Тип релиза: HDTV 1080i
Контейнер: TS
Видео: MPEG4 (H264) / 1920x1080 (16:9) / ~7100 kbps / 25.00fps / 0.138 bit/pixel
Аудио #1: Russian / MPEG Audio Layer-2 / 192 Kbps / 48 kHz / stereo / 16 bits
Аудио #2: Russian / AC3 / 384 Kbps / 48 kHz / 5.1 / 16 bits

MediaInfo
General
ID : 22C4
Complete name : D:\Oblivion.HDTV.1080i.ts
Format : MPEG-TS
File size : 6.60 GiB
Duration : 1h 59mn
Overall bit rate : 7 925 Kbps
Video
ID : 303 (0x12F)
Menu ID : 17103 (0x42CF)
Format : AVC
Format/Info : Advanced Video Codec
Format profile : High@L4.0
Format settings, CABAC : Yes
Format settings, ReFrames : 3 frames
Format settings, GOP : M=1, N=56
Codec ID : 27
Duration : 1h 59mn
Bit rate : 7 145 Kbps
Width : 1 920 pixels
Height : 1 080 pixels
Display aspect ratio : 16:9
Frame rate : 25.000 fps
Standard : Component
Color space : YUV
Chroma subsampling : 4:2:0
Bit depth : 8 bits
Scan type : Interlaced
Scan order : Top Field First
Bits/(Pixel*Frame) : 0.138
Stream size : 5.95 GiB (90%)
Color primaries : BT.709-5, BT.1361, IEC 61966-2-4, SMPTE RP177
Transfer characteristics : BT.709-5, BT.1361
Matrix coefficients : BT.709-5, BT.1361, IEC 61966-2-4 709, SMPTE RP177
Audio #1
ID : 403 (0x193)
Menu ID : 17103 (0x42CF)
Format : MPEG Audio
Format version : Version 1
Format profile : Layer 2
Codec ID : 4
Duration : 2h 6mn
Bit rate mode : Constant
Bit rate : 192 Kbps
Channel(s) : 2 channels
Sampling rate : 48.0 KHz
Stream size : 174 MiB (2%)
Language : Russian
Language, more info : Clean effects
Audio #2
ID : 423 (0x1A7)
Menu ID : 17103 (0x42CF)
Format : AC-3
Format/Info : Audio Coding 3
Mode extension : CM (complete main)
Codec ID : 6
Duration : 2h 6mn
Bit rate mode : Constant
Bit rate : 384 Kbps
Channel(s) : 6 channels
Channel positions : Front: L C R, Side: L R, LFE
Sampling rate : 48.0 KHz
Bit depth : 16 bits
Stream size : 348 MiB (5%)
Language : Russian
Language, more info : Clean effectss
Скриншоты
Скачать

Скачать торрент!

Как скачивать? · Что такое торрент? · Рейтинг и ограничения

Сайт не распространяет и не хранит электронные версии произведений, а лишь предоставляет доступ к создаваемому пользователями каталогу ссылок на торрент-файлы, которые содержат только списки хеш-сумм

[Профиль] [ЛС]
Показать сообщения:    
Ответить на тему

Текущее время: Сегодня 08:54

Часовой пояс: GMT + 4



Вы не можете начинать темы
Вы не можете отвечать на сообщения
Вы не можете редактировать свои сообщения
Вы не можете удалять свои сообщения
Вы не можете голосовать в опросах
Вы не можете прикреплять файлы к сообщениям
Вы не можете скачивать файлы