Цель вижу (Евгений Сокуров) [2013 г., военный, драма, DVDRip]

Ответить на тему
 
Автор Сообщение

user ®

Стаж: 7 лет 7 месяцев

Сообщений: 20008

Пост Пост: #1 от 13-Июл-2014 20:00

[Цитировать]

Цель вижу«Как рано вы войною взяты...»_____________________________________________________________________ Год выпуска: 2013
Производство: Россия
Жанр: военный, драма
Перевод: Оригинал (Лицензия)
Субтитры: Отсутствуют
Продолжительность: 01:29:03
Режиссер: Евгений Сокуров
В ролях: Наталья Анисимова, Александра Булычёва, Эльвира Шияпова, Елена Цыплакова, Сергей Удовик, Варвара Обидор, Екатерина Муратова, Аделина Гизатуллина, Анастасия Лашкова, Татьяна Опарина-Кошеляева
Описание: Семь девушек, совсем еще юных, выбрали себе нелегкий путь: в начале Великой Отечественной войны они окончили школу снайперов и сразу отправились на фронт. И вот они уже совсем одни пред лицом многочисленных врагов. Как поступить: бежать и спасаться, пока еще есть время, или смело шагнуть навстречу гибели?
Качество видео: DVDRip [сэмпл]
Видеокодек: XviD
Аудиокодек: MP3
Видео: 720x400 (1.80:1), 25 fps, XviD build 50, 959 kbps avg, 0.13 bit/pixel
Аудио: 48 kHz, MPEG Layer 3, 2 ch, 128.00 kbps avg
Рейтинг Скриншоты MediaInfo

Общее
Полное имя : C:\Users\User\Desktop\7491\Cel.Viju.2013.700MB.avi
Формат : AVI
Формат/Информация : Audio Video Interleave
Размер файла : 699 Мбайт
Продолжительность : 1 ч. 29 м.
Общий поток : 1097 Кбит/сек
Программа кодирования : VirtualDubMod 1.5.10.3 | www.virtualdub-fr.org || (build 2550/release)
Библиотека кодирования : VirtualDubMod build 2550/release
Видео
Идентификатор : 0
Формат : MPEG-4 Visual
Профиль формата : Advanced Simple@L5
Параметр BVOP формата : 2
Параметр QPel формата : Нет
Параметр GMC формата : Без точки перехода
Параметр матрицы формата : Default (H.263)
Идентификатор кодека : XVID
Идентификатор кодека/Подсказка : XviD
Продолжительность : 1 ч. 29 м.
Битрейт : 959 Кбит/сек
Ширина : 720 пикселей
Высота : 400 пикселей
Соотношение сторон : 16:9
Частота кадров : 25,000 кадров/сек
Цветовое пространство : YUV
Субдискретизация насыщенности : 4:2:0
Битовая глубина : 8 бит
Тип развёртки : Прогрессивная
Метод сжатия : С потерями
Бит/(Пиксели*Кадры) : 0.133
Размер потока : 611 Мбайт (87%)
Библиотека кодирования : XviD 1.2.1 (UTC 2008-12-04)
Аудио
Идентификатор : 1
Формат : MPEG Audio
Версия формата : Version 1
Профиль формата : Layer 3
Идентификатор кодека : 55
Идентификатор кодека/Подсказка : MP3
Продолжительность : 1 ч. 29 м.
Вид битрейта : Постоянный
Битрейт : 128 Кбит/сек
Каналы : 2 канала
Частота : 48,0 КГц
Метод сжатия : С потерями
Размер потока : 81,5 Мбайт (12%)
Выравнивание : Соединение по промежуткам
Продолжительность промежутка : 40 мс. (1,00 видеокадр)
Время предзагрузки промежутка : 504 мс.
Библиотека кодирования : LAME3.99r
Настройки программы : -m s -V 4 -q 2 -lowpass 17 -b 128
Скачать

Скачать торрент!

Как скачивать? · Что такое торрент? · Рейтинг и ограничения

Сайт не распространяет и не хранит электронные версии произведений, а лишь предоставляет доступ к создаваемому пользователями каталогу ссылок на торрент-файлы, которые содержат только списки хеш-сумм

[Профиль] [ЛС]
Показать сообщения:    
Ответить на тему

Текущее время: Сегодня 06:24

Часовой пояс: GMT + 4



Вы не можете начинать темы
Вы не можете отвечать на сообщения
Вы не можете редактировать свои сообщения
Вы не можете удалять свои сообщения
Вы не можете голосовать в опросах
Вы не можете прикреплять файлы к сообщениям
Вы не можете скачивать файлы