Быть с вами / Я вернусь с дождём / Ima, ai ni yukimasu / Be with You (Нобухиро Дои / Nobuhiro Doi) [2004, Япония, фэнтези, драма, мелодрама, HDRip] DVO + original Jap + Sub (rus, eng, jap, kor)

Ответить на тему
 
Автор Сообщение

user ®

Стаж: 13 лет

Сообщений: 15071

Пост Пост: #1 от 13-Июл-2014 05:05

[Цитировать]

Быть с вами / Я вернусь с дождём / Ima, ai ni yukimasu / Be with You- -Страна: Япония
Жанр: фэнтези, драма, мелодрама
Год выпуска: 2004
Продолжительность: 01:58:53-Перевод: Любительский (двухголосый закадровый) [Kasumi & Стефан]-Cубтитры: русские, английские, японские, корейские [отдельно]
Оригинальная аудиодорожка: японский
Режиссер: Нобухиро Дои / Nobuhiro Doi
В ролях: Юко Такэути, Шидо Накамура, Акаши Такей, Карен Мияма, Йосуке Ашари, Юта Хираока, Чихиро Оцука, Микако Итикава, Кацуо Накамура...
Описание: После смерти Мио ее муж и шестилетний сын остаются совсем одни. Муж думает, что жена умерла из-за его дурного характера и слабого здоровья, а сын винит в смерти матери себя. Мать оставила сыну книжку, в которой написано, что она отправилась на далекую звезду.
Однажды вечером, во время прогулки, отец и сын замечают под деревом женщину, которая прячется от дождя. Внезапно они понимают, что это, возможно, Мио. Женщина не помнит, откуда она и кто она, но она начинает играть роль умершей Мио. Мальчик считает, что книжка, которую он нашел — это машина времени, от которой зависит присутствие рядом этой женщины, и он очень боится потерять ее.
Релиз от -
Сэмпл: http://multi-up.com/985964
Качество видео: HDRip
Формат видео: AVI
Видео: MPEG-4 Visual at 1980 Кбит/сек; 720 x 384 (1.875) at 23.976 fps
Аудио: AC-3 at 192 Кбит/сек; 2 канала, 48,0 КГц [DVO]
Аудио: AC-3 at 448 Кбит/сек; 6 каналов, 48,0 КГц [Jap]
Автор -
MediaInfo
Общее
Полное имя : D:\Фильмы\Азиатские\Быть с вами\Be with You.2004.HDRip.XviD.2200MB. rip by [Assassin's Creed]\Be with You.2004.HDRip.XviD.2200MB. rip by [Assassin's Creed].avi
Формат : AVI
Формат/Информация : Audio Video Interleave
Профиль формата : OpenDML
Размер файла : 2,19 Гбайт
Продолжительность : 1 ч. 58 м.
Общий поток : 2638 Кбит/сек
Программа кодирования : VirtualDubMod 1.5.10.2 (build 2540/release)
Библиотека кодирования : VirtualDubMod build 2540/release
Видео
Идентификатор : 0
Формат : MPEG-4 Visual
Профиль формата : Advanced Simple@L5
Параметр BVOP формата : 1
Параметр QPel формата : Нет
Параметр GMC формата : Без точки перехода
Параметр матрицы формата : Default (MPEG)
Идентификатор кодека : XVID
Идентификатор кодека/Подсказка : XviD
Продолжительность : 1 ч. 58 м.
Битрейт : 1980 Кбит/сек
Ширина : 720 пикселей
Высота : 384 пикселя
Соотношение сторон : 1,85:1
Частота кадров : 23,976 кадра/сек
Цветовое пространство : YUV
Субдискретизация насыщенности : 4:2:0
Битовая глубина : 8 бит
Тип развёртки : Прогрессивная
Метод сжатия : С потерями
Бит/(Пиксели*Кадры) : 0.299
Размер потока : 1,64 Гбайт (75%)
Библиотека кодирования : XviD 1.2.1 (UTC 2008-12-04)
Аудио #1
Идентификатор : 1
Формат : AC-3
Формат/Информация : Audio Coding 3
Расширение режима : CM (complete main)
Параметр Endianness формата : Big
Идентификатор кодека : 2000
Продолжительность : 1 ч. 58 м.
Вид битрейта : Постоянный
Битрейт : 192 Кбит/сек
Каналы : 2 канала
Расположение каналов : Front: L R
Частота : 48,0 КГц
Битовая глубина : 16 бит
Метод сжатия : С потерями
Размер потока : 163 Мбайт (7%)
Выравнивание : Разделение по промежуткам
Продолжительность промежутка : 42 мс. (1,00 видеокадр)
Время предзагрузки промежутка : 500 мс.
Аудио #2
Идентификатор : 2
Формат : AC-3
Формат/Информация : Audio Coding 3
Расширение режима : CM (complete main)
Параметр Endianness формата : Big
Идентификатор кодека : 2000
Продолжительность : 1 ч. 58 м.
Вид битрейта : Постоянный
Битрейт : 448 Кбит/сек
Каналы : 6 каналов
Расположение каналов : Front: L C R, Side: L R, LFE
Частота : 48,0 КГц
Битовая глубина : 16 бит
Метод сжатия : С потерями
Размер потока : 381 Мбайт (17%)
Выравнивание : Разделение по промежуткам
Продолжительность промежутка : 42 мс. (1,00 видеокадр)
Время предзагрузки промежутка : 500 мс.
Общее
Полное имя : D:\Фильмы\Азиатские\Быть с вами\Be with You.2004.HDRip.XviD.2200MB. rip by [Assassin's Creed]\Be with You.2004.HDRip.XviD.2200MB. rip by [Assassin's Creed].eng.srt
Формат : SubRip
Размер файла : 67,6 Кбайт
Текст
Формат : SubRip
Метод сжатия : Без потерь
Общее
Полное имя : D:\Фильмы\Азиатские\Быть с вами\Be with You.2004.HDRip.XviD.2200MB. rip by [Assassin's Creed]\Be with You.2004.HDRip.XviD.2200MB. rip by [Assassin's Creed].jpn.srt
Формат : SubRip
Размер файла : 103 Кбайт
Текст
Формат : SubRip
Метод сжатия : Без потерь
Общее
Полное имя : D:\Фильмы\Азиатские\Быть с вами\Be with You.2004.HDRip.XviD.2200MB. rip by [Assassin's Creed]\Be with You.2004.HDRip.XviD.2200MB. rip by [Assassin's Creed].kor.srt
Формат : SubRip
Размер файла : 70,4 Кбайт
Текст
Формат : SubRip
Метод сжатия : Без потерь
Общее
Полное имя : D:\Фильмы\Азиатские\Быть с вами\Be with You.2004.HDRip.XviD.2200MB. rip by [Assassin's Creed]\Be with You.2004.HDRip.XviD.2200MB. rip by [Assassin's Creed].rus.srt
Формат : SubRip
Размер файла : 87,7 Кбайт
Текст
Формат : SubRip
Метод сжатия : Без потерь
Скриншот c названием фильма Скриншоты
Скачать

Скачать торрент! Быть с вами / Я вернусь с дождём / Ima, ai ni yukimasu / Be with You (Нобухиро Дои / Nobuhiro Doi) [2004, Япония, фэнтези, драма, мелодрама, HDRip] DVO + original Jap + Sub (rus, eng, jap, kor)

Как скачивать? · Что такое торрент? · Рейтинг и ограничения

Сайт не распространяет и не хранит электронные версии произведений, а лишь предоставляет доступ к создаваемому пользователями каталогу ссылок на торрент-файлы, которые содержат только списки хеш-сумм

[Профиль] [ЛС]
Показать сообщения:    
Ответить на тему

Текущее время: Сегодня 17:23

Часовой пояс: GMT + 4



Вы не можете начинать темы
Вы не можете отвечать на сообщения
Вы не можете редактировать свои сообщения
Вы не можете удалять свои сообщения
Вы не можете голосовать в опросах
Вы не можете прикреплять файлы к сообщениям
Вы не можете скачивать файлы