Из Вегаса в Макао / From Vegas to Macau / Ao Men feng yun (Цзин Вон / Jing Wong) [2014, Китай, Гонконг, комедия, боевик, HDRip] VO (den904)

Ответить на тему
 
Автор Сообщение

user ®

Стаж: 11 лет

Сообщений: 15151

Пост Пост: #1 от 13-Июл-2014 01:55

[Цитировать]

Из Вегаса в Макао / From Vegas to Macau / Ao Men feng yun
Страна: Китай, Гонконг
Жанр: комедия, боевик
Год выпуска: 2014
Продолжительность: 01:33:33
Перевод: Одноголосый закадровый den904
Cубтитры: нет
Режиссер: Цзин Вон / Jing Wong
В ролях: Чоу Юнь-Фат, Николас Тсе, Чэпман То, Тянь Цзин, Мария Кордеро, Гао Ху
Описание: В прошлом Хендрик был аферистом высокого класса, однако он оставил позади своё темное прошлое и теперь работает в казино Лас-Вегаса консультантом по безопасности. Однажды Хендрика навещает его бывший наставник Бенц, вместе со своим новым учеником, который оказывается замешан в крупной международной афере. В его руках оказывается важная информация, за которой охотятся и бандиты и полицейские. И случайно флешка с этими чрезвычайно опасными данными попадает в руки Чарли, дочери Хендрика.
Сэмпл: http://multi-up.com/985926
Качество видео: HDRip (исходник неизвестен)
Формат видео: AVI
Видео: XviD, 1896 Kbps, 720 х304 pixels, 24.000 fps
Аудио: AC3, 192 Kbps, 2 channels, Front: L R, 48.0 KHz, 16 bits

MediaInfo
General
Complete name : D:\kirovtorrent\From.Vegas.to.Macau.2014.HDRip.1.37Gb.avi
Format : AVI
Format/Info : Audio Video Interleave
File size : 1.37 GiB
Duration : 1h 33mn
Overall bit rate : 2 097 Kbps
Writing application : VirtualDubMod 1.5.10.3 | www.virtualdub-fr.org || (build 2550/release)
Writing library : VirtualDubMod build 2550/release
Video
ID : 0
Format : MPEG-4 Visual
Format profile : Advanced Simple@L5
Format settings, BVOP : Yes
Format settings, QPel : No
Format settings, GMC : No warppoints
Format settings, Matrix : Default (MPEG)
Codec ID : DX50
Codec ID/Hint : DivX 5
Duration : 1h 33mn
Bit rate : 1 896 Kbps
Width : 720 pixels
Height : 304 pixels
Display aspect ratio : 2.35:1
Frame rate : 24.000 fps
Color space : YUV
Chroma subsampling : 4:2:0
Bit depth : 8 bits
Scan type : Progressive
Compression mode : Lossy
Bits/(Pixel*Frame) : 0.361
Stream size : 1.24 GiB (90%)
Writing library : XviD 1.2.1 (UTC 2008-12-04)
Audio
ID : 1
Format : AC-3
Format/Info : Audio Coding 3
Mode extension : CM (complete main)
Format settings, Endianness : Big
Codec ID : 2000
Duration : 1h 33mn
Bit rate mode : Constant
Bit rate : 192 Kbps
Channel(s) : 2 channels
Channel positions : Front: L R
Sampling rate : 48.0 KHz
Bit depth : 16 bits
Compression mode : Lossy
Stream size : 128 MiB (9%)
Alignment : Split accross interleaves
Interleave, duration : 42 ms (1.00 video frame)
Interleave, preload duration : 500 ms
Скриншот c названием фильма Скриншоты
Скачать

Скачать торрент! Из Вегаса в Макао / From Vegas to Macau / Ao Men feng yun (Цзин Вон / Jing Wong) [2014, Китай, Гонконг, комедия, боевик, HDRip] VO (den904)

Как скачивать? · Что такое торрент? · Рейтинг и ограничения

Сайт не распространяет и не хранит электронные версии произведений, а лишь предоставляет доступ к создаваемому пользователями каталогу ссылок на торрент-файлы, которые содержат только списки хеш-сумм

[Профиль] [ЛС]
Показать сообщения:    
Ответить на тему

Текущее время: Сегодня 16:03

Часовой пояс: GMT + 4



Вы не можете начинать темы
Вы не можете отвечать на сообщения
Вы не можете редактировать свои сообщения
Вы не можете удалять свои сообщения
Вы не можете голосовать в опросах
Вы не можете прикреплять файлы к сообщениям
Вы не можете скачивать файлы