Я твой герой / Main Tera Hero (Дэвид Дхаван / David Dhawan) [2014, Индия, Боевик, мелодрама, комедия, HDRip] Sub Rus

Ответить на тему
 
Автор Сообщение

user ®

Стаж: 12 лет

Сообщений: 15092

Пост Пост: #1 от 13-Июл-2014 01:55

[Цитировать]

Я твой герой / Main Tera Hero
Страна: Индия
Жанр: Боевик, мелодрама, комедия
Год выпуска: 2014
Продолжительность: 02:06:39
Перевод: Субтитры
Cубтитры: русские
Оригинальная аудиодорожка: хинди
Режиссер: Дэвид Дхаван / David Dhawan
В ролях: Варун Дхаван, Илеана, Наргис Факхри, Арунодай Сингх, Анупам Кхер, Раджпал Ядав, Эвелин Шарма, Манодж Пахва, Суприя Шукла, Ширеш Шарма
Описание: Сину (Варун Дхаван) – обаятельный юный прохвост с невинным лицом. Перевернув все с ног на голову в родном Ути, он, к нескрываемой радости всей деревни, решает продолжить учебу в Бангалоре. Студенческая жизнь сулит ему немало удовольствий, и самое большое среди них – девушки. Вот только понравившаяся ему Сунайна (Илеана Ди Круз) оказывается невестой местного инспектора полиции с замашками бандита Ангада (Арунодай Сингх), а в Бангкоке умирает от желания стать его женой дочь крутого гангстера Айша (Наргис Факри). Такая вот география.
Доп. информация: Релиз
Перевод, редакция: jyoti (Спасибо!)
Риппер:randy23(Спасибо!)
Сэмпл: http://multi-up.com/985720
Качество видео: HDRip
Формат видео: AVI
Видео: XviD build 63, 720x304 (2.37:1), 23.976 fps, 1690 kbps avg
Аудио: Hindi AC3 Dolby Digital, 44.1 kHz, 3/2 (L,C,R,l,r) + LFE ch, 448.00 kbps avg
Формат субтитров: hardsub (неотключаемые)
MediaInfo
General
Complete name : D:\Ya.Tvoi.Geroi.2014.HDRip.avi
Format : AVI
Format/Info : Audio Video Interleave
File size : 1.90 GiB
Duration : 2h 6mn
Overall bit rate : 2 148 Kbps
Writing application : VirtualDubMod 1.5.10.3 | www.virtualdub-fr.org || (build 2550/release)
Writing library : VirtualDubMod build 2550/release
Video
ID : 0
Format : MPEG-4 Visual
Format profile : AdvancedSimple@L5
Format settings, BVOP : Yes
Format settings, QPel : No
Format settings, GMC : No warppoints
Format settings, Matrix : Default (MPEG)
Codec ID : XVID
Codec ID/Hint : XviD
Duration : 2h 6mn
Bit rate : 1 691 Kbps
Width : 720 pixels
Height : 304 pixels
Display aspect ratio : 2.35
Frame rate : 23.976 fps
Resolution : 24 bits
Colorimetry : 4:2:0
Scan type : Progressive
Bits/(Pixel*Frame) : 0.322
Stream size : 1.50 GiB (79%)
Writing library : XviD 63
Audio
ID : 1
Format : AC-3
Format/Info : Audio Coding 3
Codec ID : 2000
Duration : 2h 6mn
Bit rate mode : Constant
Bit rate : 448 Kbps
Channel(s) : 6 channels
Channel positions : Front: L C R, Surround: L R, LFE
Sampling rate : 44.1 KHz
Stream size : 406 MiB (21%)
Alignment : Split accross interleaves
Interleave, duration : 42 ms (1.00 video frame)
Interleave, preload duration : 500 ms
Скриншот c названием фильма Скриншоты
Скачать

Скачать торрент! Я твой герой / Main Tera Hero (Дэвид Дхаван / David Dhawan) [2014, Индия, Боевик, мелодрама, комедия, HDRip] Sub Rus

Как скачивать? · Что такое торрент? · Рейтинг и ограничения

Сайт не распространяет и не хранит электронные версии произведений, а лишь предоставляет доступ к создаваемому пользователями каталогу ссылок на торрент-файлы, которые содержат только списки хеш-сумм

[Профиль] [ЛС]
Показать сообщения:    
Ответить на тему

Текущее время: Сегодня 12:01

Часовой пояс: GMT + 4



Вы не можете начинать темы
Вы не можете отвечать на сообщения
Вы не можете редактировать свои сообщения
Вы не можете удалять свои сообщения
Вы не можете голосовать в опросах
Вы не можете прикреплять файлы к сообщениям
Вы не можете скачивать файлы