Горячее сердце / Kranti (Нареш Мальхотра / Naresh Malhotra) [2002, Индия, Боевик, мелодрама, DVDRip] DVO (Арена)

Ответить на тему
 
Автор Сообщение

user ®

Стаж: 12 лет

Сообщений: 15124

Пост Пост: #1 от 13-Июл-2014 01:55

[Цитировать]

Горячее сердце / Kranti
-Страна: Индия
Жанр: Боевик, мелодрама
Год выпуска: 2002
Продолжительность: 02:22:33-Перевод: Профессиональный (двухголосый закадровый) - Арена
Cубтитры: Нет--Режиссер: Нареш Мальхотра / Naresh Malhotra-В ролях: Винод Кханна, Бобби Деол, Амиша Патель, Рати Агнихотри, Кабир Беди, Далип Тахил, Бирбал, Арун Бакши, Виджу Кхоте, Юнус Парвез, Ом Пури, Тедж Сапру, Тику Талсания, Раджендранатх Зутши--Описание: Санджна (Амиша Патель) приезжает в Бомбей из Америки для написания диссертации о коррупции в индийской полиции. Она знакомится с молодым офицером полиции Абхаем (Бобби Деол). Его благородство и мужество покорили сердце девушки. Молодые люди полюбили друг друга, но чувство долга не позволяет Абхаю жить счастливой семейной жизнью. Сначала он должен обезвредить опасного преступника.-- | --Качество видео: DVDRip
Исходник: DVD9 R1
Формат видео: AVI-Видео: 720x304 (2.37:1), 23.976 fps, XviD build 50 ~1326 kbps, 0.25 bit/pixel
Аудио: 48 kHz, MPEG Layer 3, 2 ch, ~128.00 kbps--Риппер, синхронизация звука: soso4eg-Спасибо Kvakki за оцифровку, с которой был взят звук для релиза =)--Сэмпл / Sample-- -
-
Скриншоты с названием Скриншоты
-
MI
Общее
Полное имя : E:\[ИНДИЯ]\[Релизы]\Goryachee.Serdce.2002.DVDRip.XviD-soso4eg.avi
Формат : AVI
Формат/Информация : Audio Video Interleave
Размер файла : 1,46 Гбайт
Продолжительность : 2 ч. 22 м.
Общий поток : 1464 Кбит/сек
Название фильма : Kranti.2002.DVDRip.XviD-soso4eg
Режиссёр : soso4eg
Программа кодирования : VirtualDubMod 1.5.10.3 | www.virtualdub-fr.org || (build 2550/release)
Библиотека кодирования : VirtualDubMod build 2550/release
Формат оригинала/Имя : Movie
Правообладатель : специально для BitTorrent трекер *** (ex torrents.ru)
Примечание : пер. Арена
Видео
Идентификатор : 0
Формат : MPEG-4 Visual
Профиль формата : Advanced Simple@L5
Параметр BVOP формата : 1
Параметр QPel формата : Нет
Параметр GMC формата : Без точки перехода
Параметр матрицы формата : Default (MPEG)
Идентификатор кодека : XVID
Идентификатор кодека/Подсказка : XviD
Продолжительность : 2 ч. 22 м.
Битрейт : 1327 Кбит/сек
Ширина : 720 пикселей
Высота : 304 пикселя
Соотношение сторон : 2,35:1
Частота кадров : 23,976 кадра/сек
Цветовое пространство : YUV
Субдискретизация насыщенности : 4:2:0
Битовая глубина : 8 бит
Тип развёртки : Прогрессивная
Метод сжатия : С потерями
Бит/(Пиксели*Кадры) : 0.253
Размер потока : 1,32 Гбайт (91%)
Библиотека кодирования : XviD 1.2.1 (UTC 2008-12-04)
Аудио
Идентификатор : 1
Формат : MPEG Audio
Версия формата : Version 1
Профиль формата : Layer 3
Режим : Joint stereo
Расширение режима : MS Stereo
Идентификатор кодека : 55
Идентификатор кодека/Подсказка : MP3
Продолжительность : 2 ч. 22 м.
Вид битрейта : Постоянный
Битрейт : 128 Кбит/сек
Каналы : 2 канала
Частота : 48,0 КГц
Метод сжатия : С потерями
Размер потока : 131 Мбайт (9%)
Выравнивание : Соединение по промежуткам
Продолжительность промежутка : 42 мс. (1,00 видеокадр)
Время предзагрузки промежутка : 504 мс.

-
-
Скачать

Скачать торрент! Горячее сердце / Kranti (Нареш Мальхотра / Naresh Malhotra) [2002, Индия, Боевик, мелодрама, DVDRip] DVO (Арена)

Как скачивать? · Что такое торрент? · Рейтинг и ограничения

Сайт не распространяет и не хранит электронные версии произведений, а лишь предоставляет доступ к создаваемому пользователями каталогу ссылок на торрент-файлы, которые содержат только списки хеш-сумм

[Профиль] [ЛС]
Показать сообщения:    
Ответить на тему

Текущее время: Сегодня 14:02

Часовой пояс: GMT + 4



Вы не можете начинать темы
Вы не можете отвечать на сообщения
Вы не можете редактировать свои сообщения
Вы не можете удалять свои сообщения
Вы не можете голосовать в опросах
Вы не можете прикреплять файлы к сообщениям
Вы не можете скачивать файлы