Need for Speed: Жажда скорости / Need for Speed (Скотт Во / Scott Waugh) [2014, США, боевик, триллер, драма, криминал, HDRip] Dub [Звук с TS]

Ответить на тему
 
Автор Сообщение

user ®

Стаж: 7 лет 7 месяцев

Сообщений: 20008

Пост Пост: #1 от 13-Июл-2014 01:55

[Цитировать]

Need for Speed: Жажда скорости / Need for Speed
Страна: США
Жанр: боевик, триллер, драма, криминал
Год выпуска: 2014
Продолжительность: 02:10:42
Перевод: Профессиональный (дублированный) [Звук с TS]
Cубтитры: нет
Оригинальная аудиодорожка: нет
Режиссер: Скотт Во / Scott Waugh
В ролях: Дакота Джонсон, Скотт Мескади, Ник Чинланд, Майкл Китон, Рамон Родригес, Доминик Купер, Имоджен Путс, Рами Малек, Сэр Маджор, Аарон Пол
Описание: История Тоби Маршалла, гениального автомеханика, чьей единственной отдушиной является участие в подпольных гонках. Чтобы сохранить семейную мастерскую, Тоби вынужден взять в партнеры богатого и заносчивого бывшего гонщика NASCAR Дино Брюстера. Когда дела Тоби наконец-то начинают идти в гору, Дино подставляет партнера, и Тоби обвиняют в преступлении, которого он не совершал. Спустя два года Тоби выходит из тюрьмы с мыслью о мести. Чтобы достичь своей цели, ему придется совершить невозможное и доказать, что даже в мире броских суперкаров самый невзрачный гонщик может финишировать первым.

Качество видео: HDRip
Формат видео: AVI
Видео: 720x304 (2.37:1), 23.976 fps, XviD build 50 ~1365 kbps avg, 0.26 bit/pixel
Аудио: 48 kHz, MPEG Layer 3, 2 ch, ~128.00 kbps avg

MediaInfo
General
Complete name                            D: NFS.2014.Dt.HDRip.1400Mb.[mgt].avi
Format                                   : AVI
Format/Info                              : Audio Video Interleave
File size                                : 1.37 GiB
Duration                                 : 2h 10mn
Overall bit rate                         : 1 503 Kbps
Writing application                      : VirtualDubMod 1.5.10.3 | www.virtualdub-fr.org || (build 2550/release)
Writing library                          : VirtualDubMod build 2550/release
Video
ID                                       : 0
Format                                   : MPEG-4 Visual
Format profile                           : Advanced Simple@L5
Format settings, BVOP                    : 2
Format settings, QPel                    : No
Format settings, GMC                     : No warppoints
Format settings, Matrix                  : Default (H.263)
Codec ID                                 : XVID
Codec ID/Hint                            : XviD
Duration                                 : 2h 10mn
Bit rate                                 : 1 366 Kbps
Width                                    : 720 pixels
Height                                   : 304 pixels
Display aspect ratio                     : 2.35:1
Frame rate                               : 23.976 fps
Color space                              : YUV
Chroma subsampling                       : 4:2:0
Bit depth                                : 8 bits
Scan type                                : Progressive
Compression mode                         : Lossy
Bits/(Pixel*Frame)                       : 0.260
Stream size                              : 1.25 GiB (91%)
Writing library                          : XviD 1.2.1 (UTC 2008-12-04)
Audio
ID                                       : 1
Format                                   : MPEG Audio
Format version                           : Version 1
Format profile                           : Layer 3
Mode                                     : Joint stereo
Mode extension                           : MS Stereo
Codec ID                                 : 55
Codec ID/Hint                            : MP3
Duration                                 : 2h 10mn
Bit rate mode                            : Constant
Bit rate                                 : 128 Kbps
Channel count                            : 2 channels
Sampling rate                            : 48.0 KHz
Compression mode                         : Lossy
Stream size                              : 120 MiB (9%)
Alignment                                : Aligned on interleaves
Interleave, duration                     : 42 ms (1.00 video frame)
Interleave, preload duration             : 504 ms
Скриншот c названием фильма Скриншоты
Скачать

Скачать торрент!

Как скачивать? · Что такое торрент? · Рейтинг и ограничения

Сайт не распространяет и не хранит электронные версии произведений, а лишь предоставляет доступ к создаваемому пользователями каталогу ссылок на торрент-файлы, которые содержат только списки хеш-сумм

[Профиль] [ЛС]
Показать сообщения:    
Ответить на тему

Текущее время: Сегодня 10:47

Часовой пояс: GMT + 4



Вы не можете начинать темы
Вы не можете отвечать на сообщения
Вы не можете редактировать свои сообщения
Вы не можете удалять свои сообщения
Вы не можете голосовать в опросах
Вы не можете прикреплять файлы к сообщениям
Вы не можете скачивать файлы