Ширли-мырли (Владимир Меньшов) [1995, комедия, DVDRip-AVC] Sub Rus

Ответить на тему
 
Автор Сообщение

user ®

Стаж: 7 лет 7 месяцев

Сообщений: 20008

Пост Пост: #1 от 12-Июл-2014 22:45

[Цитировать]

12.07.14 раздача обновлена, рип заменен на более качественный.-Ширли-мырли
Жанр: комедия
Год выпуска: 1995
Продолжительность: 02:15:15
Cубтитры: русские
Режиссёр: Владимир Меньшов
В ролях: Валерий Гаркалин, Вера Алентова, Инна Чурикова, Армен Джигарханян, Игорь Угольников, Сергей Баталов, Лев Борисов, Ролан Быков, Леонид Куравлёв, Любовь Полищук, Олег Ефремов, Олег Табаков, Александр Ворошило, Нонна Мордюкова, Сергей Арцибашев, Евгений Весник, Евгений Герчаков, Аркадий Коваль, Евгений Александров, Александр Панкратов-Чёрный, Михаил Кокшенов, Нина Алисова, Всеволод Санаев, Ирина Апексимова, Валерий Николаев, Сергей Габриэлян, Татьяна Кравченко, Юрий Чернов, Юрий Кузьменков, Владимир Меньшов, Алексей Булдаков, Марина Голуб, Алексей Якубов
Описание: Невероятная история о братьях-близнецах, никогда прежде не слыхавших друг о друге. Один из них, в младенчестве подброшенный в табор, стал цыганским бароном; другой рос в детском доме — и теперь он еврей, музыкант с мировым именем; третьего воспитывала родная тетя, и домашнее воспитание принесло свои плоды: он стал авторитетнейшим в СНГ вором и аферистом. Именно он, благодаря своим талантам, обводит вокруг пальца главу мафии и похищает фантастических размеров алмаз «Спаситель России»...
Семпл: http://multi-up.com/738474
Качество видео: DVDRip-AVC
Формат видео: MKV
Видео: 708x558 (4:3) @ 756x558, 25.000 fps, AVC, ~1865 Kbps, 0.189 bits/pixel
Аудио: 48.0 KHz, AC3, 6 ch, 448 Kbps

Log
x264 [info]: frame I:1245 Avg QP:16.67 size: 60651
x264 [info]: frame P:42241 Avg QP:19.42 size: 23023
x264 [info]: frame B:159389 Avg QP:22.77 size: 5292
x264 [info]: consecutive B-frames: 1.3% 2.0% 9.0% 15.8% 8.9% 60.1% 1.9% 0.5% 0.4% 0.1% 0.1%
x264 [info]: mb I I16..4: 3.8% 81.5% 14.7%
x264 [info]: mb P I16..4: 1.3% 12.0% 1.6% P16..4: 40.6% 24.6% 16.5% 0.7% 0.2% skip: 2.5%
x264 [info]: mb B I16..4: 0.1% 0.8% 0.2% B16..8: 40.7% 11.4% 2.7% direct: 5.5% skip:38.7% L0:38.5% L1:43.8% BI:17.8%
x264 [info]: 8x8 transform intra:80.0% inter:69.8%
x264 [info]: direct mvs spatial:99.0% temporal:1.0%
x264 [info]: coded y,uvDC,uvAC intra: 88.0% 84.9% 55.7% inter: 25.5% 23.6% 3.3%
x264 [info]: i16 v,h,dc,p: 50% 11% 7% 32%
x264 [info]: i8 v,h,dc,ddl,ddr,vr,hd,vl,hu: 14% 10% 7% 8% 13% 14% 12% 12% 12%
x264 [info]: i4 v,h,dc,ddl,ddr,vr,hd,vl,hu: 15% 18% 3% 7% 12% 13% 11% 10% 10%
x264 [info]: i8c dc,h,v,p: 38% 22% 24% 16%
x264 [info]: Weighted P-Frames: Y:5.2% UV:1.0%
x264 [info]: ref P L0: 41.1% 14.7% 19.9% 5.5% 5.7% 3.3% 3.8% 1.8% 2.2% 1.7% 0.3% 0.0%
x264 [info]: ref B L0: 80.1% 10.3% 3.5% 1.9% 1.3% 1.2% 0.9% 0.5% 0.2%
x264 [info]: ref B L1: 95.3% 4.7%
x264 [info]: kb/s:1864.70
encoded 202875 frames, 7.33 fps, 1864.70 kb/s
MediaInfo
General
Unique ID : 220840697605390270437065576119009112391 (0xA6245F09F648AD089CCC8FCB57BD7147)
Complete name : C:\Ширли-мырли.mkv
Format : Matroska
Format version : Version 4 / Version 2
File size : 2.19 GiB
Duration : 2h 15mn
Overall bit rate : 2 315 Kbps
Encoded date : UTC 2014-07-12 13:23:39
Writing application : mkvmerge v7.0.0 ('Where We Going') 64bit built on Jun 9 2014 15:16:27
Writing library : libebml v1.3.0 + libmatroska v1.4.1
DURATION : 02:10:46.444000000
NUMBER_OF_FRAMES : 1447
NUMBER_OF_BYTES : 101944
_STATISTICS_WRITING_APP : mkvmerge v7.0.0 ('Where We Going') 64bit built on Jun 9 2014 15:16:27
_STATISTICS_WRITING_DATE_UTC : 2014-07-12 13:23:39
_STATISTICS_TAGS : BPS DURATION NUMBER_OF_FRAMES NUMBER_OF_BYTES
Video
ID : 1
Format : AVC
Format/Info : Advanced Video Codec
Format profile : High@L3.1
Format settings, CABAC : Yes
Format settings, ReFrames : 10 frames
Codec ID : V_MPEG4/ISO/AVC
Duration : 2h 15mn
Bit rate : 1 865 Kbps
Width : 708 pixels
Height : 558 pixels
Display aspect ratio : 4:3
Frame rate mode : Constant
Frame rate : 25.000 fps
Color space : YUV
Chroma subsampling : 4:2:0
Bit depth : 8 bits
Scan type : Progressive
Bits/(Pixel*Frame) : 0.189
Stream size : 1.72 GiB (79%)
Writing library : x264 core 133 r2334 a3ac64b
Encoding settings : cabac=1 / ref=10 / deblock=1:-1:-1 / analyse=0x3:0x133 / me=umh / subme=10 / psy=1 / psy_rd=1.00:0.10 / mixed_ref=1 / me_range=32 / chroma_me=1 / trellis=2 / 8x8dct=1 / cqm=0 / deadzone=21,11 / fast_pskip=0 / chroma_qp_offset=-3 / threads=6 / lookahead_threads=1 / sliced_threads=0 / nr=0 / decimate=1 / interlaced=0 / bluray_compat=0 / constrained_intra=0 / bframes=10 / b_pyramid=2 / b_adapt=2 / b_bias=0 / direct=3 / weightb=1 / open_gop=0 / weightp=2 / keyint=250 / keyint_min=25 / scenecut=40 / intra_refresh=0 / rc_lookahead=50 / rc=2pass / mbtree=1 / bitrate=1865 / ratetol=1.0 / qcomp=0.60 / qpmin=0 / qpmax=69 / qpstep=4 / cplxblur=20.0 / qblur=0.5 / ip_ratio=1.40 / aq=1:1.00
Default : Yes
Forced : No
Audio
ID : 2
Format : AC-3
Format/Info : Audio Coding 3
Mode extension : CM (complete main)
Format settings, Endianness : Big
Codec ID : A_AC3
Duration : 2h 15mn
Bit rate mode : Constant
Bit rate : 448 Kbps
Channel(s) : 6 channels
Channel positions : Front: L C R, Side: L R, LFE
Sampling rate : 48.0 KHz
Bit depth : 16 bits
Compression mode : Lossy
Stream size : 433 MiB (19%)
Language : Russian
Default : Yes
Forced : No
Text
ID : 3
Format : UTF-8
Codec ID : S_TEXT/UTF8
Codec ID/Info : UTF-8 Plain Text
Language : Russian
Default : No
Forced : No
Menu
00:00:00.000 : :Chapter 01
00:09:58.560 : :Chapter 02
00:16:08.640 : :Chapter 03
00:24:56.640 : :Chapter 04
00:35:15.840 : :Chapter 05
00:38:05.760 : :Chapter 06
00:49:24.000 : :Chapter 07
00:59:05.760 : :Chapter 08
01:11:26.880 : :Chapter 09
01:16:07.680 : :Chapter 10
01:19:41.280 : :Chapter 11
01:29:17.760 : :Chapter 12
01:38:36.960 : :Chapter 13
01:44:21.600 : :Chapter 14
01:49:34.080 : :Chapter 15
01:56:28.800 : :Chapter 16
02:05:49.920 : :Chapter 17
02:07:44.160 : :Chapter 18
Скриншоты
Скачать

Скачать торрент!

Как скачивать? · Что такое торрент? · Рейтинг и ограничения

Сайт не распространяет и не хранит электронные версии произведений, а лишь предоставляет доступ к создаваемому пользователями каталогу ссылок на торрент-файлы, которые содержат только списки хеш-сумм

[Профиль] [ЛС]
Показать сообщения:    
Ответить на тему

Текущее время: Сегодня 04:49

Часовой пояс: GMT + 4



Вы не можете начинать темы
Вы не можете отвечать на сообщения
Вы не можете редактировать свои сообщения
Вы не можете удалять свои сообщения
Вы не можете голосовать в опросах
Вы не можете прикреплять файлы к сообщениям
Вы не можете скачивать файлы