Телефонный звонок в ад / Cash Calls Hell / Gohiko no Shinshi (Хидэо Гося / Hideo Gosha) [1966, Япония, драма, нуар, экшен, DVDRip] VO (Гундос)

Ответить на тему
 
Автор Сообщение

user ®

Стаж: 11 лет

Сообщений: 15151

Пост Пост: #1 от 12-Июл-2014 02:25

[Цитировать]

Телефонный звонок в ад / Cash Calls Hell / Gohiko no Shinshi
Страна: Япония
Жанр: драма, нуар, экшен
Год выпуска: 1966
Продолжительность: 01:27:16
Перевод: Одноголосый закадровый (Гундос)
Cубтитры: нет
Оригинальная аудиодорожка: Японский
Режиссер: Хидэо Гося / Hideo Gosha
В ролях: Тэцуя Накадаи, Микидзиро Хира, Хисаси Игава, Миюки Кувано, Исиро Накатани, Куниэ Танака
Описание: Ойда, случайно убивший в ДТП велосипедиста и его дочь, сидит в тюрьме. Перед выходом сокамерник предлагает ему убрать троих людей за 15 миллионов йен. Ойде нечего терять и он соглашается. Но все оказывается не так просто - во-первых, этих троих ищут еще и двое убийц из Гонконга; во-вторых, чем больше Ойда узнает об истории, в которую попал, тем меньше она ему нравится.
Сэмпл: http://sendfile.su/1000164
Качество видео: DVDRip
Формат видео: AVI
Видео: 688x304 (2.26:1), 25 fps, XviD build 73 ~2043 kbps avg, 0.39 bit/pixel
Аудио: 48 kHz, MPEG Layer 3, 2 ch, ~128.00 kbps avd
Аудио 2: 48 kHz, AC3 Dolby Digital, 2/0 (L,R) ch, ~192.00 kbps avg
Релиз:
MediaInfo
General
Complete name : E:\CASH.CALLS.HELL.1966.avi
Format : AVI
Format/Info : Audio Video Interleave
File size : 1.45 GiB
Duration : 1h 27mn
Overall bit rate : 2 379 Kbps
Writing application : VirtualDubMod 1.5.10.1 (build 2366/release)
Writing library : VirtualDubMod build 2366/release
Video
ID : 0
Format : MPEG-4 Visual
Format profile : Advanced Simple@L5
Format settings, BVOP : 2
Format settings, QPel : No
Format settings, GMC : No warppoints
Format settings, Matrix : Default (MPEG)
Codec ID : DIVX
Codec ID/Info : Project Mayo
Codec ID/Hint : DivX 4
Duration : 1h 27mn
Bit rate : 2 045 Kbps
Width : 688 pixels
Height : 304 pixels
Display aspect ratio : 2.25:1
Frame rate : 25.000 fps
Color space : YUV
Chroma subsampling : 4:2:0
Bit depth : 8 bits
Scan type : Progressive
Compression mode : Lossy
Bits/(Pixel*Frame) : 0.391
Stream size : 1.25 GiB (86%)
Writing library : XviD 73
Audio #1
ID : 1
Format : MPEG Audio
Format version : Version 1
Format profile : Layer 3
Mode : Joint stereo
Mode extension : MS Stereo
Codec ID : 55
Codec ID/Hint : MP3
Duration : 1h 27mn
Bit rate mode : Constant
Bit rate : 128 Kbps
Channel(s) : 2 channels
Sampling rate : 48.0 KHz
Compression mode : Lossy
Stream size : 79.9 MiB (5%)
Alignment : Aligned on interleaves
Interleave, duration : 40 ms (1.00 video frame)
Interleave, preload duration : 504 ms
Audio #2
ID : 2
Format : AC-3
Format/Info : Audio Coding 3
Mode extension : CM (complete main)
Format settings, Endianness : Big
Codec ID : 2000
Duration : 1h 27mn
Bit rate mode : Constant
Bit rate : 192 Kbps
Channel(s) : 2 channels
Channel positions : Front: L R
Sampling rate : 48.0 KHz
Bit depth : 16 bits
Compression mode : Lossy
Stream size : 120 MiB (8%)
Alignment : Split accross interleaves
Interleave, duration : 40 ms (1.00 video frame)
Interleave, preload duration : 500 ms
Скриншоты
Скачать

Скачать торрент! Телефонный звонок в ад / Cash Calls Hell / Gohiko no Shinshi (Хидэо Гося / Hideo Gosha) [1966, Япония, драма, нуар, экшен, DVDRip] VO (Гундос)

Как скачивать? · Что такое торрент? · Рейтинг и ограничения

Сайт не распространяет и не хранит электронные версии произведений, а лишь предоставляет доступ к создаваемому пользователями каталогу ссылок на торрент-файлы, которые содержат только списки хеш-сумм

[Профиль] [ЛС]
Показать сообщения:    
Ответить на тему

Текущее время: Сегодня 10:13

Часовой пояс: GMT + 4



Вы не можете начинать темы
Вы не можете отвечать на сообщения
Вы не можете редактировать свои сообщения
Вы не можете удалять свои сообщения
Вы не можете голосовать в опросах
Вы не можете прикреплять файлы к сообщениям
Вы не можете скачивать файлы