Старые джинсы / Purani Jeans (Танушри Чаттрджи Бассу / Tanushri Chattrji Bassu) [2014, Индия, Драма, мелодрама, HDRip] Sub Rus

Ответить на тему
 
Автор Сообщение

user ®

Стаж: 12 лет

Сообщений: 15092

Пост Пост: #1 от 12-Июл-2014 02:25

[Цитировать]

Старые джинсы / Purani Jeans
Страна: Индия
Жанр: Драма, мелодрама
Год выпуска: 2014
Продолжительность: 02:14:39
Перевод: Субтитры
Cубтитры: русские
Оригинальная аудиодорожка: хинди
Режиссер: Танушри Чаттрджи Бассу / Tanushri Chattrji Bassu
В ролях: Танудж Вирвани, Адитья Сил, Изабелль Лейте, Рати Агнихотри, Сарика
Описание: Сидду живёт и работает в Америке - Сиддхарт Рэй, так зовут нашего героя. Спустя много лет он возвращается в Индию, чтобы навсегда порвать с ней, продать дом, в котором прожиты самые счастливые моменты его жизни. В те далёкие времена у него была понимающая и любящая мама, весёлые друзья... и незабываемая первая любовь. Его лучший друг богат, умён, поёт, играет на гитаре... И угораздило их влюбиться в одну девушку...
Доп. информация: Релиз-группы: Bee Movie
Перевод субтитров: Ратюся (Спасибо!)
Сэмпл: http://multi-up.com/985708
Качество видео: HDRip
Формат видео: AVI
Видео: XviD build 50, 720x304 (2.37:1), 24 fps, 1050 kbps avg
Аудио: Hindi AC3 Dolby Digital, 44.1 kHz, 2/0 (L,R) ch, 448.00 kbps avg
Формат субтитров: hardsub (неотключаемые)
MediaInfo
General
Complete name : F:\Starye.dzhinsy.2014.HDRip.XviD.Bee.Movie.avi
Format : AVI
Format/Info : Audio Video Interleave
File size : 1.42 GiB
Duration : 2h 14mn
Overall bit rate : 1 507 Kbps
Writing application : VirtualDubMod 1.5.10.3 | www.virtualdub-fr.org || (build 2550/release)
Writing library : VirtualDubMod build 2550/release
Video
ID : 0
Format : MPEG-4 Visual
Format profile : AdvancedSimple@L5
Format settings, BVOP : Yes
Format settings, QPel : No
Format settings, GMC : No warppoints
Format settings, Matrix : Default (H.263)
Codec ID : DX50
Codec ID/Hint : DivX 5
Duration : 2h 14mn
Bit rate : 1 050 Kbps
Width : 720 pixels
Height : 304 pixels
Display aspect ratio : 2.35
Frame rate : 24.000 fps
Resolution : 24 bits
Colorimetry : 4:2:0
Scan type : Progressive
Bits/(Pixel*Frame) : 0.200
Stream size : 1 011 MiB (70%)
Writing library : XviD 1.2.1 (UTC 2008-12-04)
Audio
ID : 1
Format : AC-3
Format/Info : Audio Coding 3
Codec ID : 2000
Duration : 2h 14mn
Bit rate mode : Constant
Bit rate : 448 Kbps
Channel(s) : 2 channels
Channel positions : L R
Sampling rate : 44.1 KHz
Stream size : 432 MiB (30%)
Alignment : Split accross interleaves
Interleave, duration : 42 ms (1.00 video frame)
Interleave, preload duration : 500 ms
Скриншот c названием фильма Скриншоты
Скачать

Скачать торрент! Старые джинсы / Purani Jeans (Танушри Чаттрджи Бассу / Tanushri Chattrji Bassu) [2014, Индия, Драма, мелодрама, HDRip] Sub Rus

Как скачивать? · Что такое торрент? · Рейтинг и ограничения

Сайт не распространяет и не хранит электронные версии произведений, а лишь предоставляет доступ к создаваемому пользователями каталогу ссылок на торрент-файлы, которые содержат только списки хеш-сумм

[Профиль] [ЛС]
Показать сообщения:    
Ответить на тему

Текущее время: Сегодня 07:12

Часовой пояс: GMT + 4



Вы не можете начинать темы
Вы не можете отвечать на сообщения
Вы не можете редактировать свои сообщения
Вы не можете удалять свои сообщения
Вы не можете голосовать в опросах
Вы не можете прикреплять файлы к сообщениям
Вы не можете скачивать файлы