Принцесса и разбойник / Suraj (Т. Пракаш Рао / T. Prakash Rao) [1966, Индия, Мелодрама, приключения, DVDRip] MVO (Zee TV)

Ответить на тему
 
Автор Сообщение

user ®

Стаж: 12 лет

Сообщений: 15092

Пост Пост: #1 от 12-Июл-2014 02:25

[Цитировать]

Принцесса и разбойник / Suraj
-Страна: Индия
Жанр: Мелодрама, приключения
Год выпуска: 1966
Продолжительность: 02:33:20-Перевод: Профессиональный (многоголосый закадровый) - Zee TV
Субтитры: Нет--Режиссер: Т. Пракаш Рао / T. Prakash Rao-В ролях: Виджаянтимала, Раджендра Кумар, Мумтаз, Малика, Аджит, Агха, Девид Абрахам, Нираджан Шарма, Мукри, Кешав Рана, Джонни Уолкер, Лалита Павар, Ниту Сингх-Описание: Махараджа Викрам Сингх за долгие годы верной службы награждает Санграма Сингха поместьем и дарует ему титул. Он также обещает отдать свою дочь Анурадху (Виджаянтимала) замуж за сына Санграма Пратапа. Спустя годы Викрам посылает Анурадху на коронацию ее жениха - принца Пратапа Сингха (Аджит). Строптивая красавица решила сначала познакомиться поближе с Пратапом и отправляется в дорогу без сопровождения только со своей служанкой Калавати (Мумтаз). Вскоре Викраму сообщают, что Калавати была похищена разбойником Сураджем Сингхом (Раджендра Кумар). Он едет в княжество Санграма и обнаруживает, что Калавати выдает себя за Анурадху, а его дочь похищена Сураджем. Пратап узнает о подмене и бросает Сураджа в темницу. Все готово для коронации и свадьбы Пратапа с Анурадхой, но...- | --Качество видео: DVDRip
Исходник: DVD9
Формат видео: AVI-Видео: 576x416 (1.38:1), 25 fps, XviD build 50 ~1240 kbps avg, 0.21 bit/pixel
Аудио: 44.100 kHz, MPEG Layer 3, 2 ch, ~112.00 kbps-Сэмпл / Sample
-
Риппер, сведение звука: soso4eg-Внимание!
Имеются незначительные фразы без перевода ~ 1,2 мин.
Совсем редкое запинание звука (так вещал канал Zee TV) ((
-- -Скриншоты
-
MI
Общее
Полное имя : E:\[ИНДИЯ]\[Релизы]\Princessa.I.Razboinik.1966.DVDRip.XviD-soso4eg.avi
Формат : AVI
Формат/Информация : Audio Video Interleave
Размер файла : 1,46 Гбайт
Продолжительность : 2 ч. 33 м.
Общий поток : 1362 Кбит/сек
Название фильма : Suraj.1966.DVDRip.XviD-soso4eg
Режиссёр : soso4eg
Программа кодирования : VirtualDubMod 1.5.10.3 | www.virtualdub-fr.org || (build 2550/release)
Библиотека кодирования : VirtualDubMod build 2550/release
Формат оригинала/Имя : Movie
Правообладатель : специально для BitTorrent трекер *** (ex torrents.ru)
Примечание : пер. Zee TV
Видео
Идентификатор : 0
Формат : MPEG-4 Visual
Профиль формата : Advanced Simple@L5
Параметр BVOP формата : 1
Параметр QPel формата : Нет
Параметр GMC формата : Без точки перехода
Параметр матрицы формата : Default (MPEG)
Идентификатор кодека : XVID
Идентификатор кодека/Подсказка : XviD
Продолжительность : 2 ч. 33 м.
Битрейт : 1241 Кбит/сек
Ширина : 576 пикселей
Высота : 416 пикселей
Соотношение сторон : 1,385
Частота кадров : 25,000 кадров/сек
Цветовое пространство : YUV
Субдискретизация насыщенности : 4:2:0
Битовая глубина : 8 бит
Тип развёртки : Прогрессивная
Метод сжатия : С потерями
Бит/(Пиксели*Кадры) : 0.207
Размер потока : 1,33 Гбайт (91%)
Библиотека кодирования : XviD 1.2.1 (UTC 2008-12-04)
Аудио
Идентификатор : 1
Формат : MPEG Audio
Версия формата : Version 1
Профиль формата : Layer 3
Режим : Joint stereo
Расширение режима : MS Stereo
Идентификатор кодека : 55
Идентификатор кодека/Подсказка : MP3
Продолжительность : 2 ч. 33 м.
Вид битрейта : Постоянный
Битрейт : 112 Кбит/сек
Каналы : 2 канала
Частота : 44,1 КГц
Метод сжатия : С потерями
Размер потока : 123 Мбайт (8%)
Выравнивание : Разделение по промежуткам
Продолжительность промежутка : 40 мс. (1,00 видеокадр)
Время предзагрузки промежутка : 500 мс.
Скачать

Скачать торрент! Принцесса и разбойник / Suraj (Т. Пракаш Рао / T. Prakash Rao) [1966, Индия, Мелодрама, приключения, DVDRip] MVO (Zee TV)

Как скачивать? · Что такое торрент? · Рейтинг и ограничения

Сайт не распространяет и не хранит электронные версии произведений, а лишь предоставляет доступ к создаваемому пользователями каталогу ссылок на торрент-файлы, которые содержат только списки хеш-сумм

[Профиль] [ЛС]
Показать сообщения:    
Ответить на тему

Текущее время: Сегодня 06:31

Часовой пояс: GMT + 4



Вы не можете начинать темы
Вы не можете отвечать на сообщения
Вы не можете редактировать свои сообщения
Вы не можете удалять свои сообщения
Вы не можете голосовать в опросах
Вы не можете прикреплять файлы к сообщениям
Вы не можете скачивать файлы