Это вечернее солнце / That Evening Sun (Скотт Тимс / Scott Teems) [2009, США, драма, BDRip 720p] Sub Rus, Eng + Original Eng

Ответить на тему
 
Автор Сообщение

user ®

Стаж: 7 лет 7 месяцев

Сообщений: 20008

Пост Пост: #1 от 12-Июл-2014 02:25

[Цитировать]

Это вечернее солнце / That Evening Sun«I worked too hard. And too long. I aint goin down without a fight»- Страна: США
Жанр: драма
Год выпуска: 2009
Продолжительность: 01:49:18
Перевод: Субтитры (doc_ravik)

Оригинальная аудиодорожка: английский
Субтитры: русские, английские-Режиссер: Скотт Тимс / Scott Teems
В ролях: Хэл Холбрук, Рэй МакКиннон, Уолтон Гоггинс, Миа Васиковска, Кэрри Престон, Бэрри Корбин, Дикси Картер, Барлоу Джейкобс, Энтони Рейнольдс, Брайан Кит
Описание: Пожилой фермер возвращается к себе домой, где вынужден вести борьбу со своим прошлым за свое будущее.-Кинопоиск | IMDB
-Качество видео: BDRip 720p (исходник неизвестен)
Формат видео: MKV
Видео: MPEG-4 AVC Video, 4 209 kbps, 1280*544, 23.976 fps (2.35:1)
Аудио: 48 kHz, DTS, 3/2 (L,C,R,l,r) + LFE ch, ~1510.00 kbps avg
Формат субтитров: softsub (SRT)
Пример субтитров
1
00:00:39,712 --> 00:00:45,052
ЭТО ВЕЧЕРНЕЕ СОЛНЦЕ
2
00:04:50,379 --> 00:04:52,985
Это у тебя привычка
такая - брать чужое?
3
00:04:53,458 --> 00:04:54,971
Вы же Мичем, да?
4
00:04:56,657 --> 00:04:58,281
Они послали тебя вернуть меня?
5
00:04:58,841 --> 00:05:00,234
Да, сэр, именно так.
6
00:05:01,811 --> 00:05:03,879
Сколько они тебе платят за
то, чтобы ты привез меня?
7
00:05:04,392 --> 00:05:05,446
20 долларов.
8
00:05:06,521 --> 00:05:07,914
Они с тобой уже расплатились?
9
00:05:09,067 --> 00:05:10,547
Нет, заплатят когда привезу вас.
10
00:05:11,222 --> 00:05:12,049
Понятно.
11
00:05:12,921 --> 00:05:13,795
Слушай.
12
00:05:15,027 --> 00:05:17,667
Помоги найти мои часы где-то здесь,
13
00:05:18,670 --> 00:05:22,072
и я позволю тебе вернуть меня к ним.
14
00:05:23,505 --> 00:05:24,396
Дерьмо.
15
00:05:32,444 --> 00:05:33,291
Боже.
16
00:05:34,037 --> 00:05:35,515
Сэр, не знаю что вам сказать.
17
00:05:35,959 --> 00:05:37,636
Кажется, ваши часы сделали ноги.
18
00:05:37,885 --> 00:05:39,010
Черта с два.
19
00:05:39,545 --> 00:05:41,652
В этом-то и проблема вашего поколения -
20
00:05:42,466 --> 00:05:44,136
никогда не доводите дело до конца.
Скриншоты MI
General
Unique ID : 234668002816327548553406846331958045708 (0xB08B69D20CAD71F69A1B6273230BAC0C)
Complete name : G:\Torrents\Мои\That.Evening.Sun.2009.720p.BluRay.x264.SubRus.mkv
Format : Matroska
File size : 4.37 GiB
Duration : 1h 49mn
Overall bit rate : 5 720 Kbps
Encoded date : UTC 2014-07-09 07:45:38
Writing application : mkvmerge v4.0.0 ('The Stars were mine') сборка от Jun 6 2010 16:18:42
Writing library : libebml v1.0.0 + libmatroska v1.0.0
Video
ID : 1
Format : AVC
Format/Info : Advanced Video Codec
Format profile : High@L4.1
Format settings, CABAC : Yes
Format settings, ReFrames : 8 frames
Codec ID : V_MPEG4/ISO/AVC
Duration : 1h 49mn
Bit rate : 4 209 Kbps
Width : 1 280 pixels
Height : 544 pixels
Display aspect ratio : 2.35:1
Frame rate : 23.976 fps
Color space : YUV
Chroma subsampling : 4:2:0
Bit depth : 8 bits
Scan type : Progressive
Bits/(Pixel*Frame) : 0.252
Stream size : 3.13 GiB (72%)
Writing library : x264 core 104 r1703 cd21d05
Encoding settings : cabac=1 / ref=8 / deblock=1:-3:-3 / analyse=0x3:0x113 / me=umh / subme=9 / psy=1 / psy_rd=1.05:0.10 / mixed_ref=1 / me_range=32 / chroma_me=1 / trellis=2 / 8x8dct=1 / cqm=0 / deadzone=21,11 / fast_pskip=0 / chroma_qp_offset=-2 / threads=6 / sliced_threads=0 / nr=0 / decimate=1 / interlaced=0 / constrained_intra=0 / bframes=4 / b_pyramid=2 / b_adapt=2 / b_bias=0 / direct=3 / weightb=1 / open_gop=0 / weightp=2 / keyint=250 / keyint_min=23 / scenecut=40 / intra_refresh=0 / rc_lookahead=60 / rc=2pass / mbtree=1 / bitrate=4209 / ratetol=1.0 / qcomp=0.60 / qpmin=10 / qpmax=51 / qpstep=4 / cplxblur=20.0 / qblur=0.5 / vbv_maxrate=40000 / vbv_bufsize=30000 / ip_ratio=1.40 / aq=1:0.60 / nal_hrd=none
Language : English
Audio
ID : 2
Format : DTS
Format/Info : Digital Theater Systems
Codec ID : A_DTS
Duration : 1h 49mn
Bit rate mode : Constant
Bit rate : 1 510 Kbps
Channel(s) : 6 channels
Channel positions : Front: L C R, Side: L R, LFE
Sampling rate : 48.0 KHz
Bit depth : 24 bits
Compression mode : Lossy
Stream size : 1.15 GiB (26%)
Title : English DTS-HDMA core 5.1 1510Kbps
Language : English
Text #1
ID : 3
Format : UTF-8
Codec ID : S_TEXT/UTF8
Codec ID/Info : UTF-8 Plain Text
Language : Russian
Text #2
ID : 4
Format : UTF-8
Codec ID : S_TEXT/UTF8
Codec ID/Info : UTF-8 Plain Text
Language : English
Скачать

Скачать торрент!

Как скачивать? · Что такое торрент? · Рейтинг и ограничения

Сайт не распространяет и не хранит электронные версии произведений, а лишь предоставляет доступ к создаваемому пользователями каталогу ссылок на торрент-файлы, которые содержат только списки хеш-сумм

[Профиль] [ЛС]
Показать сообщения:    
Ответить на тему

Текущее время: Сегодня 13:40

Часовой пояс: GMT + 4



Вы не можете начинать темы
Вы не можете отвечать на сообщения
Вы не можете редактировать свои сообщения
Вы не можете удалять свои сообщения
Вы не можете голосовать в опросах
Вы не можете прикреплять файлы к сообщениям
Вы не можете скачивать файлы