Ушко иголки / Игольное ушко / Eye of the Needle (Ричард Маркуэнд / Richard Marquand) [1981, Великобритания, триллер, военный, мелодрама, HDTV 1080i] MVO + Sub Eng + Original Eng

Ответить на тему
 
Автор Сообщение

user ®

Стаж: 7 лет 7 месяцев

Сообщений: 20008

Пост Пост: #1 от 11-Июл-2014 20:05

[Цитировать]

Ушко иголки / Игольное ушко / Eye of the Needle
Страна: Великобритания
Студия: Kings Road Entertainment
Жанр: триллер, военный, мелодрама
Год выпуска: 1981
Продолжительность: 01:46:51
Перевод: Профессиональный (многоголосый закадровый)
Cубтитры: английские
Оригинальная аудиодорожка: английский
Режиссер: Ричард Маркуэнд / Richard Marquand
В ролях: Дональд Сазерленд, Стивен МакКенна, Филип Мартин Браун, Кейт Неллиган, Кристофер Кейзнов, Джордж Бэлбин, Фэйт Брук, Джордж Ли, Артур Лавгроув, Колин Рикс, Барбара Юинг, Крис Дженкинсон, Уильям Мэрроу, Патрик Коннор
Описание: По одноименному роману Кена Фоллетта. Англия. Вторая мировая война. Люси живет на маленьком безлюдном острове. После сильного шторма она находит на берегу еле живого, но чертовски привлекательного мужчину. Оказывается, что это законспирированный немецкий шпион, выкравший планы наступления союзных войск, но не сумевший уйти от преследования. Он владеет любыми видами оружия и убивает не задумываясь. За ним охотятся все спецслужбы Англии...
II Сэмпл II IMDB II
Тип релиза: HDTV 1080i
Контейнер: MKV
Видео: AVC 1920x1080 (16:9) 25.0fps Bit rate 5210Kbps
Аудио 1: MP2 48.0 KHz 2ch. 192kbps rus
Аудио 2: AC3 48.0 KHz 2ch. 192kbps eng
Формат субтитров: softsub (SRT)
MediaInfo
Общее
Уникальный идентификатор : 201440382858113149515710106073223422788 (0x978C01AC4FF273639F921E9B89A06344)
Полное имя : E:\torrent\Eye.of.the.Needle.HDTV.1080i.mkv
Формат : Matroska
Версия формата : Version 4 / Version 2
Размер файла : 4,26 Гбайт
Продолжительность : 1 ч. 46 м.
Общий поток : 5708 Кбит/сек
Дата кодирования : UTC 2014-07-09 00:28:34
Программа кодирования : mkvmerge v7.0.0 ('Where We Going') 64bit built on Jun 9 2014 15:16:27
Библиотека кодирования : libebml v1.3.0 + libmatroska v1.4.1
DURATION : 01:45:22.065000000
NUMBER_OF_FRAMES : 771
NUMBER_OF_BYTES : 27727
_STATISTICS_WRITING_APP : mkvmerge v7.0.0 ('Where We Going') 64bit built on Jun 9 2014 15:16:27
_STATISTICS_WRITING_DATE_UTC : 2014-07-09 00:28:34
_STATISTICS_TAGS : BPS DURATION NUMBER_OF_FRAMES NUMBER_OF_BYTES
Видео
Идентификатор : 1
Формат : AVC
Формат/Информация : Advanced Video Codec
Профиль формата : High@L4.0
Параметр CABAC формата : Да
Параметр ReFrames формата : 3 кадра
Параметр GOP формата : M=4, N=32
Идентификатор кодека : V_MPEG4/ISO/AVC
Продолжительность : 1 ч. 46 м.
Битрейт : 5210 Кбит/сек
Ширина : 1920 пикселей
Высота : 1080 пикселей
Соотношение сторон : 16:9
Режим частоты кадров : Постоянный
Частота кадров : 25,000 кадров/сек
Стандарт вещания : Component
Цветовое пространство : YUV
Субдискретизация насыщенности : 4:2:0
Битовая глубина : 8 бит
Тип развёртки : Чересстрочная
Порядок развёртки : Верхнее поле первое
Бит/(Пиксели*Кадры) : 0.101
Размер потока : 3,89 Гбайт (91%)
Заголовок : Eye.of.the.Needle.HDTV.1080i
Default : Да
Forced : Нет
Основные цвета : BT.709
Характеристики трансфера : BT.709
Коэффициенты матрицы : BT.709
Аудио #1
Идентификатор : 2
Формат : MPEG Audio
Версия формата : Version 1
Профиль формата : Layer 2
Идентификатор кодека : A_MPEG/L2
Идентификатор кодека/Подсказка : MP2
Продолжительность : 1 ч. 46 м.
Вид битрейта : Постоянный
Битрейт : 192 Кбит/сек
Каналы : 2 канала
Частота : 48,0 КГц
Метод сжатия : С потерями
Размер потока : 147 Мбайт (3%)
Заголовок : MP2_2ch_192Kbps_MVO
Язык : Russian
Default : Да
Forced : Нет
Аудио #2
Идентификатор : 3
Формат : AC-3
Формат/Информация : Audio Coding 3
Расширение режима : CM (complete main)
Параметр Endianness формата : Big
Идентификатор кодека : A_AC3
Продолжительность : 1 ч. 46 м.
Вид битрейта : Постоянный
Битрейт : 192 Кбит/сек
Каналы : 2 канала
Расположение каналов : Front: L R
Частота : 48,0 КГц
Битовая глубина : 16 бит
Метод сжатия : С потерями
Размер потока : 147 Мбайт (3%)
Заголовок : AC3_2ch_192Kbps_original eng
Язык : English
Default : Нет
Forced : Нет
Текст
Идентификатор : 4
Формат : UTF-8
Идентификатор кодека : S_TEXT/UTF8
Идентификатор кодека/Информация : UTF-8 Plain Text
Заголовок : subtitle eng
Язык : English
Default : Нет
Forced : Нет
Скриншот с названием фильма Скриншоты Сравнение с DVD
Скачать

Скачать торрент!

Как скачивать? · Что такое торрент? · Рейтинг и ограничения

Сайт не распространяет и не хранит электронные версии произведений, а лишь предоставляет доступ к создаваемому пользователями каталогу ссылок на торрент-файлы, которые содержат только списки хеш-сумм

[Профиль] [ЛС]
Показать сообщения:    
Ответить на тему

Текущее время: Сегодня 12:52

Часовой пояс: GMT + 4



Вы не можете начинать темы
Вы не можете отвечать на сообщения
Вы не можете редактировать свои сообщения
Вы не можете удалять свои сообщения
Вы не можете голосовать в опросах
Вы не можете прикреплять файлы к сообщениям
Вы не можете скачивать файлы