Жюри / Jury / joo-ri / 주리 (Ким Дон Хо / Kim Dong-ho) [2012, Корея Южная, короткометражка, SATRip] MVO (Культура)

Ответить на тему
 
Автор Сообщение

user ®

Стаж: 11 лет

Сообщений: 15151

Пост Пост: #1 от 11-Июл-2014 16:55

[Цитировать]

Жюри / Jury / joo-ri / 주리
Страна: Корея Южная
Жанр: короткометражка
Год выпуска: 2012
Продолжительность: 00:22:10
Перевод: Профессиональный (многоголосый закадровый) студия "Лексикон" по заказу "Камер-Тон-Медиа"
Cубтитры: нет
Оригинальная аудиодорожка: нет
Режиссер: Ким Дон Хо / Kim Dong-ho
В ролях: Канг Су Ен, Ин-ги Юнг, Пак Хи Бон, Тони Райнс, Джун-бум Парк, Ли Чхэ Ын, Ан Сон Ги
Описание: Пятеро членов жюри международного кинофестиваля обсуждают конкурсные фильмы. Режиссер утверждает, что идеальный фильм должен волновать сердце. Актриса делает акцент на основной идее. Кинокритик рассуждает о новых тенденциях в корейском кино. Другой член жюри не может толком сформулировать свою позицию из-за языкового барьера. Председатель жюри теряет контроль. Сможет ли такое жюри прийти к единому мнению?
Сэмпл: http://multi-up.com/985603
Качество видео: SATRip
Формат видео: AVI
Видео: MPEG4, XviD, 704x304 (2.35), 25.000 fps, 2 045 Kbps (0.382 bit/pixel)
Аудио: AC-3, 48.0 KHz, 2 ch, 192 Kbps, CBR
MediaInfo
Общее
Полное имя : K:\Жюри.avi
Формат : AVI
Формат/Информация : Audio Video Interleave
Размер файла : 356 Мбайт
Продолжительность : 22 м.
Общий поток : 2247 Кбит/сек
Название фильма : Жюри / Jury (2012)
Программа кодирования : VirtualDubMod 1.5.10.2 (build 2540/release)
Библиотека кодирования : VirtualDubMod build 2540/release
Правообладатель : miha2154
Видео
Идентификатор : 0
Формат : MPEG-4 Visual
Профиль формата : Advanced Simple@L5
Параметр BVOP формата : 2
Параметр QPel формата : Нет
Параметр GMC формата : Без точки перехода
Параметр матрицы формата : Default (MPEG)
Идентификатор кодека : XVID
Идентификатор кодека/Подсказка : XviD
Продолжительность : 22 м.
Битрейт : 2045 Кбит/сек
Ширина : 704 пикселя
Высота : 304 пикселя
Соотношение сторон : 2,35:1
Частота кадров : 25,000 кадров/сек
Цветовое пространство : YUV
Субдискретизация насыщенности : 4:2:0
Битовая глубина : 8 бит
Тип развёртки : Прогрессивная
Метод сжатия : С потерями
Бит/(Пиксели*Кадры) : 0.382
Размер потока : 324 Мбайт (91%)
Библиотека кодирования : XviD 1.1.0 (UTC 2005-11-22)
Аудио
Идентификатор : 1
Формат : AC-3
Формат/Информация : Audio Coding 3
Расширение режима : CM (complete main)
Параметр Endianness формата : Big
Идентификатор кодека : 2000
Продолжительность : 22 м.
Вид битрейта : Постоянный
Битрейт : 192 Кбит/сек
Каналы : 2 канала
Расположение каналов : Front: L R
Частота : 48,0 КГц
Битовая глубина : 16 бит
Метод сжатия : С потерями
Размер потока : 30,4 Мбайт (9%)
Выравнивание : Разделение по промежуткам
Продолжительность промежутка : 40 мс. (1,00 видеокадр)
Время предзагрузки промежутка : 500 мс.
Заголовок : Профессиональный (многоголосый закадровый)
Скриншоты
Скачать

Скачать торрент! Жюри / Jury / joo-ri / 주리 (Ким Дон Хо / Kim Dong-ho) [2012, Корея Южная, короткометражка, SATRip] MVO (Культура)

Как скачивать? · Что такое торрент? · Рейтинг и ограничения

Сайт не распространяет и не хранит электронные версии произведений, а лишь предоставляет доступ к создаваемому пользователями каталогу ссылок на торрент-файлы, которые содержат только списки хеш-сумм

[Профиль] [ЛС]
Показать сообщения:    
Ответить на тему

Текущее время: Сегодня 10:49

Часовой пояс: GMT + 4



Вы не можете начинать темы
Вы не можете отвечать на сообщения
Вы не можете редактировать свои сообщения
Вы не можете удалять свои сообщения
Вы не можете голосовать в опросах
Вы не можете прикреплять файлы к сообщениям
Вы не можете скачивать файлы