Дракон Удачи №5 / Lucky Dragon No. 5 / Daigo Fukuryu-Maru (Канэто Синдо / Kaneto Shindo) [1959, Япония, драма, DVDRip] (Rus) (Eng) + Sub

Ответить на тему
 
Автор Сообщение

user ®

Стаж: 11 лет

Сообщений: 15151

Пост Пост: #1 от 11-Июл-2014 16:55

[Цитировать]

Дракон Удачи №5 / Lucky Dragon No. 5 / Daigo Fukuryu-Maru / 第五福竜丸
Страна: Япония
Жанр: драма
Год выпуска: 1959
Продолжительность: 01:46:41
Перевод 1: Субтитры русские - дед_сто_лет©
Перевод 2: Субтитры английские - Kirikomi, CLeTuS, lordretsudo
Cубтитры: русские
Оригинальная аудиодорожка: японский
Режиссер: Канэто Синдо / Kaneto Shindo
В ролях: Дзюкити УНО, Нобуко ОТОВА, Ёсио ИНАБА, Ясуси НАГАТА, Ясуми ХАРА, Тайдзи ТОНОЯМА, Томоо НАГАИ, Эйтаро ОДЗАВА, Торахико ХАМАДА, Корэя СЭНДА, Масао СИМИДЗУ, Кацухэй МАЦУМОТО, Дзэко НАКАМУРА, Итиро СИМИДЗУ, Масао МИСИМА, Хисао ТОАКЭ, Син МОРИКАВА, Кодзи МИЦУИ
Описание: 22 января 1954 года рыбачья шхуна "Дракон Удачи №5" вышла в очередной рейс. На корабле есть бригадир и менеджер, но команда больше всего доверяет самому опытному человеку на судне, связисту Аикити Кубояма. В надежде добыть богатый улов судно направляется не на юг, как обычно, а на восток. 1 марта 1954 года рыбаки становятся невольными свидетелями испытания водородной бомбы на атолле Бикини.©
> > > > > > > > >
Качество видео: DVDRip
Формат видео: AVI
Видео: 720x304 (2.37:1), 23.976 fps, XviD build 50 ~1735 kbps avg, 0.33 bit/pixel
Аудио: 48 kHz, AC3 Dolby Digital, 1/0 (C) ch, ~224 kbps
Формат субтитров: softsub (SRT)
Доп. информация о субтитрах: дед_сто_лет
Пример субтитров
206
00:35:31,229 --> 00:35:32,867
С возвращением!
207
00:35:33,665 --> 00:35:36,509
Боже, вот это загар!
208
00:35:40,538 --> 00:35:42,575
С возвращением!
209
00:35:42,841 --> 00:35:46,152
Вас так долго не было.
Целых 50 дней!
210
00:35:46,845 --> 00:35:48,688
Небольшой сувенир.
211
00:35:49,080 --> 00:35:52,789
Такой юный и свежий,
как мы сами!
212
00:36:08,800 --> 00:36:10,677
Ну, мы поедем.
213
00:36:11,069 --> 00:36:12,980
как вы себя чувствуете?
214
00:36:21,646 --> 00:36:23,647
Отдайте это доктору.
215
00:36:23,648 --> 00:36:26,652
- Объясните, что с вами случилось.
- Направление у вас на руках?
216
00:36:27,886 --> 00:36:29,661
Да. Тогда мы поедем.
217
00:36:57,349 --> 00:36:59,693
Масуда-сан и Ямадзаки-сан?
218
00:37:01,686 --> 00:37:06,056
«1-го марта во время рыбной ловли
в районе атолла Бикини...»
219
00:37:06,057 --> 00:37:11,564
«23 члена экипажа были поражены
облаком водородной бомбы...»
220
00:37:11,596 --> 00:37:18,172
«У них есть признаки радиационного
поражения. Прошу обследовать»
221
00:37:18,269 --> 00:37:19,942
Всё правильно.
222
00:37:20,839 --> 00:37:23,046
У вас очень темные лица.
223
00:37:25,310 --> 00:37:29,281
Мы принесли ещё вот это.
224
00:37:36,321 --> 00:37:37,925
- До свидания.
- Пока.
225
00:37:41,359 --> 00:37:45,967
- Я вернулся. - Кэйдзо, я только что
узнала что-то ужасное...
226
00:37:46,031 --> 00:37:50,104
"Дракон Удачи" был возле атолла
Бикини в момент атомного взрыва.
227
00:37:50,168 --> 00:37:52,170
Кто сказал?
228
00:37:52,203 --> 00:37:55,673
Я узнала от менеджера
рыбной артели Фудзикава.
229
00:37:55,707 --> 00:37:58,745
Капитан "Дракона Удачи"
спрашивал совета о том...
230
00:37:58,777 --> 00:38:01,587
... как написать письмо протеста.
231
00:38:01,880 --> 00:38:05,015
Менеджер их подслушал!
232
00:38:05,016 --> 00:38:06,962
Мама, когда это случилось?
233
00:38:06,985 --> 00:38:09,727
Вроде бы он сказал, 1-го марта.
234
00:38:09,788 --> 00:38:11,699
1-го марта?
235
00:38:12,090 --> 00:38:14,070
Я читал об этом в газете...
MediaInfo
General
Complete name : C:\Torrents\[ASIA]\Lucky.Dragon(1959)Kaneto.Shindo\Lucky.Dragon.No5.avi
Format : AVI
Format/Info : Audio Video Interleave
File size : 1.47 GiB
Duration : 1h 46mn
Overall bit rate : 1 966 Kbps
Writing application : VirtualDubMod 1.5.4.1 (build 2178/release)
Writing library : VirtualDubMod build 2178/release
Video
ID : 0
Format : MPEG-4 Visual
Format profile : Advanced Simple@L5
Format settings, BVOP : 1
Format settings, QPel : No
Format settings, GMC : No warppoints
Format settings, Matrix : Custom
Codec ID : XVID
Codec ID/Hint : XviD
Duration : 1h 46mn
Bit rate : 1 736 Kbps
Width : 720 pixels
Height : 304 pixels
Display aspect ratio : 2.35:1
Frame rate : 23.976 fps
Color space : YUV
Chroma subsampling : 4:2:0
Bit depth : 8 bits
Scan type : Progressive
Compression mode : Lossy
Bits/(Pixel*Frame) : 0.331
Stream size : 1.29 GiB (88%)
Writing library : XviD 1.2.1 (UTC 2008-12-04)
Audio
ID : 1
Format : AC-3
Format/Info : Audio Coding 3
Mode extension : CM (complete main)
Codec ID : 2000
Duration : 1h 46mn
Bit rate mode : Constant
Bit rate : 224 Kbps
Channel(s) : 1 channel
Channel positions : Front: C
Sampling rate : 48.0 KHz
Bit depth : 16 bits
Compression mode : Lossy
Stream size : 171 MiB (11%)
Alignment : Split accross interleaves
Interleave, duration : 96 ms (2.30 video frames)
Interleave, preload duration : 96 ms
Скриншот c названием фильма Скриншоты
Скачать

Скачать торрент! Дракон Удачи №5 / Lucky Dragon No. 5 / Daigo Fukuryu-Maru (Канэто Синдо / Kaneto Shindo) [1959, Япония, драма, DVDRip] (Rus) (Eng) + Sub

Как скачивать? · Что такое торрент? · Рейтинг и ограничения

Сайт не распространяет и не хранит электронные версии произведений, а лишь предоставляет доступ к создаваемому пользователями каталогу ссылок на торрент-файлы, которые содержат только списки хеш-сумм

[Профиль] [ЛС]
Показать сообщения:    
Ответить на тему

Текущее время: Сегодня 15:56

Часовой пояс: GMT + 4



Вы не можете начинать темы
Вы не можете отвечать на сообщения
Вы не можете редактировать свои сообщения
Вы не можете удалять свои сообщения
Вы не можете голосовать в опросах
Вы не можете прикреплять файлы к сообщениям
Вы не можете скачивать файлы