Полный хаос / Полная неразбериха / Дурдом / Total Siyapaa (Ишвар Нивас / Eeshwar Nivas) [2014, Индия, Драма, мелодрама, комедия, DVDRip] MVO + Sub Rus

Ответить на тему
 
Автор Сообщение

user ®

Стаж: 12 лет

Сообщений: 15092

Пост Пост: #1 от 11-Июл-2014 16:55

[Цитировать]

Полный хаос / Полная неразбериха / Дурдом / Total Siyapaa Страна: Индия
Жанр: Драма, мелодрама, комедия
Год выпуска: 2014
Продолжительность: 01:48:05
Перевод: Любительский (многоголосый закадровый) (ICG)
Cубтитры: русские (на песни и полные)
Оригинальная аудиодорожка: Хинди
Режиссер: Ишвар Нивас / Eeshwar Nivas
В ролях: Али Зафар, Ями Гаутам, Кирон Кхер, Анупам Кхер, Сара Кхан
Описание: Аман и Аша любят друг друга.И все бы ничего, но Аман-пакистанец,а Аша-индианка. Семья девушки очень консервативных взглядов, поэтому девушка им не сообщила кто по национальности ее жених, сказав лишь что он мусульманин, что их тоже не воодушевило. И вот настал день знакомить жениха с семьей....
Семпл: http://multi-up.com/985061
Перевод и редакция: Александра
Релиз-группа: по заказу
Качество видео: DVDRip
Формат видео: AVI
Видео: XviD, 720х304, 2209 Kbps, 23.976 fps
Аудио: AC-3, 48.0 KHz, 448 Kbps, 6 ch (Русский)
Аудио 2 AC-3, 48.0 KHz, 224 Kbps, 2 ch (Хинди)
Формат субтитров: softsub (SRT)
MediaInfo
Общее
Полное имя : I:\Bollywood Movie\Total Siyapaa\Мои релизы Rutracker\Total.Siyapaa.2014.DVDRip.Rus.Original.ICG.GF.BT\Total.Siyapaa.2014.DVDRip.Rus.Original.ICG.GF.BT.avi
Формат : AVI
Формат/Информация : Audio Video Interleave
Профиль формата : OpenDML
Размер файла : 2,19 Гбайт
Продолжительность : 1 ч. 48 м.
Общий поток : 2899 Кбит/сек
Программа кодирования : VirtualDubModRus 1.5.10.2 (build 2542/release)
Библиотека кодирования : VirtualDubMod build 2542/release
Видео
Идентификатор : 0
Формат : MPEG-4 Visual
Профиль формата : Advanced Simple@L5
Параметр BVOP формата : 1
Параметр QPel формата : Нет
Параметр GMC формата : Без точки перехода
Параметр матрицы формата : Default (MPEG)
Идентификатор кодека : XVID
Идентификатор кодека/Подсказка : XviD
Продолжительность : 1 ч. 48 м.
Битрейт : 2209 Кбит/сек
Ширина : 720 пикселей
Высота : 304 пикселя
Соотношение сторон : 2,35:1
Частота кадров : 23,976 кадра/сек
Цветовое пространство : YUV
Субдискретизация насыщенности : 4:2:0
Битовая глубина : 8 бит
Тип развёртки : Прогрессивная
Метод сжатия : С потерями
Бит/(Пиксели*Кадры) : 0.421
Размер потока : 1,67 Гбайт (76%)
Библиотека кодирования : XviD 64
Аудио #1
Идентификатор : 1
Формат : AC-3
Формат/Информация : Audio Coding 3
Расширение режима : CM (complete main)
Идентификатор кодека : 2000
Продолжительность : 1 ч. 48 м.
Вид битрейта : Постоянный
Битрейт : 448 Кбит/сек
Каналы : 6 каналов
Расположение каналов : Front: L C R, Side: L R, LFE
Частота : 48,0 КГц
Битовая глубина : 16 бит
Метод сжатия : С потерями
Размер потока : 346 Мбайт (15%)
Выравнивание : Разделение по промежуткам
Продолжительность промежутка : 42 мс. (1,00 видеокадр)
Время предзагрузки промежутка : 500 мс.
Аудио #2
Идентификатор : 2
Формат : AC-3
Формат/Информация : Audio Coding 3
Расширение режима : CM (complete main)
Идентификатор кодека : 2000
Продолжительность : 1 ч. 48 м.
Вид битрейта : Постоянный
Битрейт : 224 Кбит/сек
Каналы : 2 канала
Расположение каналов : Front: L R
Частота : 48,0 КГц
Битовая глубина : 16 бит
Метод сжатия : С потерями
Размер потока : 173 Мбайт (8%)
Выравнивание : Соединение по промежуткам
Продолжительность промежутка : 42 мс. (1,00 видеокадр)
Время предзагрузки промежутка : 512 мс.
Общее
Полное имя : I:\Bollywood Movie\Total Siyapaa\Мои релизы Rutracker\Total.Siyapaa.2014.DVDRip.Rus.Original.ICG.GF.BT\Total.Siyapaa.2014.DVDRip.Rus.Original.ICG.GF.BT.rus.full.srt
Формат : SubRip
Размер файла : 109 Кбайт
Текст
Формат : SubRip
Метод сжатия : Без потерь
Общее
Полное имя : I:\Bollywood Movie\Total Siyapaa\Мои релизы Rutracker\Total.Siyapaa.2014.DVDRip.Rus.Original.ICG.GF.BT\Total.Siyapaa.2014.DVDRip.Rus.Original.ICG.GF.BT.srt
Размер файла : 7,57 Кбайт
Скриншот c названием фильма Скриншоты
Скачать

Скачать торрент! Полный хаос / Полная неразбериха / Дурдом / Total Siyapaa (Ишвар Нивас / Eeshwar Nivas) [2014, Индия, Драма, мелодрама, комедия, DVDRip] MVO + Sub Rus

Как скачивать? · Что такое торрент? · Рейтинг и ограничения

Сайт не распространяет и не хранит электронные версии произведений, а лишь предоставляет доступ к создаваемому пользователями каталогу ссылок на торрент-файлы, которые содержат только списки хеш-сумм

[Профиль] [ЛС]
Показать сообщения:    
Ответить на тему

Текущее время: Сегодня 15:49

Часовой пояс: GMT + 4



Вы не можете начинать темы
Вы не можете отвечать на сообщения
Вы не можете редактировать свои сообщения
Вы не можете удалять свои сообщения
Вы не можете голосовать в опросах
Вы не можете прикреплять файлы к сообщениям
Вы не можете скачивать файлы