Западный Кабокло / Faroeste caboclo (Рене Сэмпейо / Rene Sampaio) [2013, Бразилия, драма, мелодрама, криминал, вестерн, BDRip 1080p] VO (Barin101) + Sub Eng + Original Por

Ответить на тему
 
Автор Сообщение

user ®

Стаж: 7 лет 7 месяцев

Сообщений: 20008

Пост Пост: #1 от 11-Июл-2014 16:55

[Цитировать]

Западный Кабокло / Faroeste caboclo
Страна: Бразилия
Студия: Fogo Cerrado, Gavea Filmes, Globo Filmes
Жанр: драма, мелодрама, криминал, вестерн
Год выпуска: 2013
Продолжительность: 01:45:29
Перевод: одноголосый закадровый /Barin101/
Cубтитры: английские
Оригинальная аудиодорожка: португальский
Режиссер: Рене Сэмпейо / Rene Sampaio
В ролях: Фабрисио Боливейра /Fabricio Boliveira/, Изис Вальверде /Isis Valverde/, Фелипе Абиб /Felipe Abib/, Антонио Каллони /Antonio Calloni/, Маркос Паоло /Marcos Paulo/, Синара Лиал /Cinara Leal/, Джулиано Манфредини /Giuliano Manfredini/, Родриго Пандольфо /Rodrigo Pandolfo/, Джулиана Ломанн /Juliana Lohmann/, Лео Роза /Leo Rosa/, Алекс Сандер /Alex Sander/, Сесар Тронкосо /Cesar Troncoso/
Описание:Простой бразильский парень Жоау убивает полицейского, застрелившего его отца. Отсидев за это, он приезжает в столицу, где находит своего кузена, занимающегося торговлей наркотиками. Жоау становится наркокурьером, тем самым переходит дорогу местным наркобаронам, которые начинают на него охоту.Доп. информация:
КиноПоиск
IMDb
Исходник с бухты, за ссылку спасибо edus67.
Сэмпл: http://multi-up.com/985514
Тип релиза: BDRip 1080p
Контейнер: MKV
Видео: MPEG-4 AVC Video / 10150 kbps / 1920x860 / 24.000 fps / High Profile 4.1
Аудио 1: Russian / AC3 / 2.0 / 48 kHz / 192 kbps
Аудио 2: Portuguese / AC3 / 5.1 / 48 kHz / 640 kbps
Формат субтитров: softsub (SRT)
MediaInfo
Общее
Уникальный идентификатор : 225263458073196736941927646866050102860 (0xA97829F72E7024E481C945E12A7FB64C)
Полное имя : D:\Faroeste.Caboclo.2013.1080p.BluRay.x264.RUS.mkv
Формат : Matroska
Версия формата : Version 2
Размер файла : 8,09 Гбайт
Продолжительность : 1 ч. 45 м.
Общий поток : 11,0 Мбит/сек
Дата кодирования : UTC 2014-07-10 17:01:50
Программа кодирования : mkvmerge v5.4.0 ('Piper') built on Mar 10 2012 13:34:39
Библиотека кодирования : libebml v1.2.3 + libmatroska v1.3.0
Видео
Идентификатор : 1
Формат : AVC
Формат/Информация : Advanced Video Codec
Профиль формата : High@L4.1
Параметр CABAC формата : Да
Параметр ReFrames формата : 4 кадра
Идентификатор кодека : V_MPEG4/ISO/AVC
Продолжительность : 1 ч. 45 м.
Битрейт : 10,1 Мбит/сек
Ширина : 1920 пикселей
Высота : 860 пикселей
Соотношение сторон : 2,25:1
Режим частоты кадров : Постоянный
Частота кадров : 24,000 кадра/сек
Цветовое пространство : YUV
Субдискретизация насыщенности : 4:2:0
Битовая глубина : 8 бит
Тип развёртки : Прогрессивная
Бит/(Пиксели*Кадры) : 0.256
Размер потока : 7,31 Гбайт (90%)
Заголовок : Faroeste.Caboclo.2013.1080p.BluRay.x264-TrueHD.keastwood
Библиотека кодирования : x264 core 133 r2334 a3ac64b
Настройки программы : cabac=1 / ref=4 / deblock=1:-1:-1 / analyse=0x3:0x133 / me=umh / subme=9 / psy=1 / psy_rd=1.00:0.15 / mixed_ref=1 / me_range=24 / chroma_me=1 / trellis=2 / 8x8dct=1 / cqm=0 / deadzone=21,11 / fast_pskip=0 / chroma_qp_offset=-3 / threads=12 / lookahead_threads=1 / sliced_threads=0 / nr=0 / decimate=1 / interlaced=0 / bluray_compat=0 / constrained_intra=0 / bframes=3 / b_pyramid=2 / b_adapt=2 / b_bias=0 / direct=3 / weightb=1 / open_gop=0 / weightp=2 / keyint=240 / keyint_min=24 / scenecut=40 / intra_refresh=0 / rc_lookahead=60 / rc=2pass / mbtree=1 / bitrate=10150 / ratetol=1.0 / qcomp=0.60 / qpmin=0 / qpmax=69 / qpstep=4 / cplxblur=20.0 / qblur=0.5 / vbv_maxrate=62500 / vbv_bufsize=78125 / nal_hrd=none / ip_ratio=1.40 / aq=1:1.00
Default : Да
Forced : Нет
Аудио #1
Идентификатор : 2
Формат : AC-3
Формат/Информация : Audio Coding 3
Расширение режима : CM (complete main)
Параметр Endianness формата : Big
Идентификатор кодека : A_AC3
Продолжительность : 1 ч. 45 м.
Вид битрейта : Постоянный
Битрейт : 192 Кбит/сек
Каналы : 2 канала
Расположение каналов : Front: L R
Частота : 48,0 КГц
Битовая глубина : 16 бит
Метод сжатия : С потерями
Размер потока : 145 Мбайт (2%)
Заголовок : Barin101
Язык : Russian
Default : Да
Forced : Нет
Аудио #2
Идентификатор : 3
Формат : AC-3
Формат/Информация : Audio Coding 3
Расширение режима : CM (complete main)
Параметр Endianness формата : Big
Идентификатор кодека : A_AC3
Продолжительность : 1 ч. 45 м.
Вид битрейта : Постоянный
Битрейт : 640 Кбит/сек
Каналы : 6 каналов
Расположение каналов : Front: L C R, Side: L R, LFE
Частота : 48,0 КГц
Битовая глубина : 16 бит
Метод сжатия : С потерями
Размер потока : 483 Мбайт (6%)
Язык : Portuguese
Default : Нет
Forced : Нет
Текст
Идентификатор : 4
Формат : UTF-8
Идентификатор кодека : S_TEXT/UTF8
Идентификатор кодека/Информация : UTF-8 Plain Text
Язык : English
Default : Нет
Forced : Нет
Скриншоты
Скачать

Скачать торрент!

Как скачивать? · Что такое торрент? · Рейтинг и ограничения

Сайт не распространяет и не хранит электронные версии произведений, а лишь предоставляет доступ к создаваемому пользователями каталогу ссылок на торрент-файлы, которые содержат только списки хеш-сумм

[Профиль] [ЛС]
Показать сообщения:    
Ответить на тему

Текущее время: Сегодня 18:40

Часовой пояс: GMT + 4



Вы не можете начинать темы
Вы не можете отвечать на сообщения
Вы не можете редактировать свои сообщения
Вы не можете удалять свои сообщения
Вы не можете голосовать в опросах
Вы не можете прикреплять файлы к сообщениям
Вы не можете скачивать файлы