Брат 2 (Алексей Балабанов) [2000, Боевик, DVDRip]

Ответить на тему
 
Автор Сообщение

user ®

Стаж: 7 лет 7 месяцев

Сообщений: 20008

Пост Пост: #1 от 11-Июл-2014 10:50

[Цитировать]

Брат 2
Жанр: Боевик
Год выпуска: 2000
Продолжительность: 2:02:37
Режиссёр: Алексей Балабанов
В ролях: Сергей Бодров (Данила Багров) ,Виктор Сухоруков (Виктор Багров) , Александр Дьяченко (Константин Громов, Дмитрий Громов) , Сергей Маковецкий (Валентин Белкин) , Кирилл Пирогов (Илья Сетевой) , Дарья Лесникова (Даша / Мерилин) , Гари Хьюстон (Мэнис) , Ирина Салтыкова (камео) , Рей Толер (Бен Джонсон) , Александр Карамнов (Борис, охранник Салтыковой) , Константин Мурзенко («Фашист», археолог-оружейник), Иван Демидов (ведущий программы «В мире людей») , Аркадий Зерский (Куйбышев, сомнительный продавец-еврей) , Ирина Рахманова (девушка в бане) , Инна Капнулина (девушка в бане) , Егор Пазенко (следователь в отделении милиции допрашивающий Данилу)
Описание: Участвуя в программе на телевидении, Данила Багров встречает своих друзей по Чечне. Одного из них внезапно убивают. Данила знает, что у убитого были неприятности из-за брата - хоккеиста, играющего за американский клуб. Данила должен разобраться. Теперь его фото ходит по рукам русской и американской мафий. Новоявленные "Аль Капоне" с ужасом осознают, что нарвались на настоящего профессионала...
Доп. информация:
Релиз
Сэмпл: http://multi-up.com/985483
Качество видео: DVDRip
Формат видео: AVI
Видео: 704x416 (1.69:1), 25 fps, XviD build 65 ~2070 kbps avg, 0.28 bit/pixel
Аудио: 48 kHz, AC3 Dolby Digital, 3/2 (L,C,R,l,r) + LFE ch, ~448 kbps
MediaInfo
Брат-2.DVDRip-SVAT.avi
Format : AVI
Format/Info : Audio Video Interleave
Format profile : OpenDML
File size : 2.16 GiB
Duration : 2h 2mn
Overall bit rate : 2 525 Kbps
Writing application : VirtualDubMod 1.5.10.3 | www.virtualdub-fr.org || (build 2550/release)
Writing library : VirtualDubMod build 2550/release
Video
ID : 0
Format : MPEG-4 Visual
Format profile : Advanced Simple@L5
Format settings, BVOP : 2
Format settings, QPel : No
Format settings, GMC : No warppoints
Format settings, Matrix : Custom
Codec ID : XVID
Codec ID/Hint : XviD
Duration : 2h 2mn
Bit rate : 2 065 Kbps
Width : 704 pixels
Height : 416 pixels
Display aspect ratio : 1.692
Frame rate : 25.000 fps
Color space : YUV
Chroma subsampling : 4:2:0
Bit depth : 8 bits
Scan type : Progressive
Compression mode : Lossy
Bits/(Pixel*Frame) : 0.282
Stream size : 1.77 GiB (82%)
Writing library : XviD 65
Audio
ID : 1
Format : AC-3
Format/Info : Audio Coding 3
Mode extension : CM (complete main)
Format settings, Endianness : Big
Codec ID : 2000
Duration : 2h 2mn
Bit rate mode : Constant
Bit rate : 448 Kbps
Channel count : 6 channels
Channel positions : Front: L C R, Side: L R, LFE
Sampling rate : 48.0 KHz
Bit depth : 16 bits
Compression mode : Lossy
Stream size : 393 MiB (18%)
Alignment : Split accross interleaves
Interleave, duration : 40 ms (1.00 video frame)
Interleave, preload duration : 500 ms
Скриншот c названием фильма Скриншоты
Скачать

Скачать торрент!

Как скачивать? · Что такое торрент? · Рейтинг и ограничения

Сайт не распространяет и не хранит электронные версии произведений, а лишь предоставляет доступ к создаваемому пользователями каталогу ссылок на торрент-файлы, которые содержат только списки хеш-сумм

[Профиль] [ЛС]
Показать сообщения:    
Ответить на тему

Текущее время: Сегодня 06:26

Часовой пояс: GMT + 4



Вы не можете начинать темы
Вы не можете отвечать на сообщения
Вы не можете редактировать свои сообщения
Вы не можете удалять свои сообщения
Вы не можете голосовать в опросах
Вы не можете прикреплять файлы к сообщениям
Вы не можете скачивать файлы