Царь Обезьян / The Monkey King / Xi you ji: Da nao tian gong (Чан Поу Cой / Pou-Soi Cheang) [2014, Гонконг, боевик, приключения, семейный, HDRip] DVO (Ворон и Sandairina)

Ответить на тему
 
Автор Сообщение

user ®

Стаж: 11 лет

Сообщений: 15151

Пост Пост: #1 от 11-Июл-2014 04:30

[Цитировать]

Царь Обезьян / The Monkey King / Xi you ji: Da nao tian gong
Страна: Гонконг
Жанр: боевик, приключения, семейный
Год выпуска: 2014
Продолжительность: 01:59:16
Перевод: Любительский (двухголосый закадровый) Ворон и Sandairina
Cубтитры: нет
Режиссер: Чан Поу Cой / Pou-Soi Cheang
В ролях: Донни Ен - Сунь У Кун, царь обезьян, Чоу Юнь Фат - Нефритовый император, Аарон Квок - царь-демон Бык, Джо Чэнь - царевна Железный веер, Питер Хо - Эрлан Шэнь, Келли Чэнь - Гуань Инь, Чжан Цзы Линь - Ню Ва, Ся Цзы Тун - оборотень-лиса, Кэлвин Чэн - Ночжа, Лю Хуа - царь драконов Восточного моря, Хай И Тянь - Суботи
Описание: Первая часть трилогии представляет собой предысторию к «Путешествию на запад», популярной легенде о приключениях Царя Обезьян на пути в Индию. Она начинается с рождения Сунь У Куна, описывает как он приобретает невероятную мощь, сражаясь с армиями и богов и демонов в поисках своего места на небесах, и завершается его заключением за прегрешения под горой Пяти элементов. Это драматическая, красочная, и с юмором рассказанная история презренного существа, овладевшего непревзойденными способностями, но безрассудно использовавшего их и, в конечном счете, вынужденного заплатить за искупление непомерную цену.
Релиз группы:
Сэмпл: http://multi-up.com/985445
Качество видео: HDRip (BDRip 720p)
Формат видео: AVI
Видео: XviD, 739 Kbps, 656 х 272 pixels, 23.976 fps
Аудио: MP3, 128 Kbps, 2 channels, 48.0 KHz - Rus

MediaInfo
General
Complete name : D:\The.Monkey.King.2014.HDRip.745Mb.avi
Format : AVI
Format/Info : Audio Video Interleave
File size : 747 MiB
Duration : 1h 59mn
Overall bit rate : 876 Kbps
Writing application : VirtualDubMod 1.5.10.3 | www.virtualdub-fr.org || (build 2550/release)
Writing library : VirtualDubMod build 2550/release
Video
ID : 0
Format : MPEG-4 Visual
Format profile : Advanced Simple@L5
Format settings, BVOP : Yes
Format settings, QPel : No
Format settings, GMC : No warppoints
Format settings, Matrix : Custom
Codec ID : XVID
Codec ID/Hint : XviD
Duration : 1h 59mn
Bit rate : 739 Kbps
Width : 656 pixels
Height : 272 pixels
Display aspect ratio : 2.40:1
Frame rate : 23.976 fps
Color space : YUV
Chroma subsampling : 4:2:0
Bit depth : 8 bits
Scan type : Progressive
Compression mode : Lossy
Bits/(Pixel*Frame) : 0.173
Stream size : 630 MiB (84%)
Writing library : XviD 73
Audio
ID : 1
Format : MPEG Audio
Format version : Version 1
Format profile : Layer 3
Codec ID : 55
Codec ID/Hint : MP3
Duration : 1h 59mn
Bit rate mode : Constant
Bit rate : 128 Kbps
Channel(s) : 2 channels
Sampling rate : 48.0 KHz
Compression mode : Lossy
Stream size : 109 MiB (15%)
Alignment : Aligned on interleaves
Interleave, duration : 42 ms (1.00 video frame)
Interleave, preload duration : 504 ms
Writing library : LAME3.99r
Encoding settings : -m s -V 4 -q 2 -lowpass 17 -b 128
Скриншот c названием фильма Скриншоты
Скачать

Скачать торрент! Царь Обезьян / The Monkey King / Xi you ji: Da nao tian gong (Чан Поу Cой / Pou-Soi Cheang) [2014, Гонконг, боевик, приключения, семейный, HDRip] DVO (Ворон и Sandairina)

Как скачивать? · Что такое торрент? · Рейтинг и ограничения

Сайт не распространяет и не хранит электронные версии произведений, а лишь предоставляет доступ к создаваемому пользователями каталогу ссылок на торрент-файлы, которые содержат только списки хеш-сумм

[Профиль] [ЛС]
Показать сообщения:    
Ответить на тему

Текущее время: Сегодня 13:18

Часовой пояс: GMT + 4



Вы не можете начинать темы
Вы не можете отвечать на сообщения
Вы не можете редактировать свои сообщения
Вы не можете удалять свои сообщения
Вы не можете голосовать в опросах
Вы не можете прикреплять файлы к сообщениям
Вы не можете скачивать файлы