Совместная поездка / Ride Along (Тим Стори / Tim Story) [2014 г., США, боевик, комедия, BDRip] Dub

Ответить на тему
 
Автор Сообщение

user ®

Стаж: 7 лет 7 месяцев

Сообщений: 20008

Пост Пост: #1 от 11-Июл-2014 04:30

[Цитировать]

Совместная поездкаRide Along-«Propose to this cop's sister? Rookie mistake»- Год выпуска: 2014
Страна: США-Жанр: боевик, комедия
Продолжительность: 01:39:31
Перевод: Профессиональный (полное дублирование)
Субтитры: нет-Режиссер: Тим Стори / Tim Story
Сценарий: Грег Кулидж / Greg Coolidge, Джейсон Манцукас / Jason Mantzoukas, Фил Хэй / Phil Hay, Мэтт Манфреди / Matt Manfredi
Продюсер: Мэтт Альварес / Matt Alvarez, Ларри Брэзнер / Larry Brezner, Айс Кьюб / Ice Cube, Уильям Пэкер / William Packer, Дайян Эшфорд / Dianne Ashford
Оператор: Ларри Блэнфорд / Larry Blanford
Композитор: Кристофер Леннерц / Christopher Lennertz-В ролях: Айс Кьюб (James Payton), Кевин Харт (Ben Barber), Джон Легуизамо (Santiago), Брюс МакГилл (Lt. Brooks), Тика Самптер (Angela Payton), Брайан Коллен (Miggs), Лоренс Фишбёрн (Omar), Драгош Букур (Marko), Гари Оуэн (Crazy Cody), Джейкоб Латимор (Ramon), Джей Фэро (Runflat), Бенжамин Флорес мл. (Morris the Kid)
Дублёры: Юрий Деркач (James Payton), Андрей Бархударов (Ben Barber), Иван Калинин (Santiago), Петр Тобилевич (Lt. Brooks), Полина Щербакова (Angela Payton), Александр Носков (Miggs), Денис Беспалый (Omar), Анастасия Лапина (Dispatcher Gina; Gun Shop Val), Радик Мухаметзянов (Dr. Cowan)-Описание: Охранник Бен отправляется вместе со своим шурином Джеймсом в патруль по Атланте, чтобы доказать, что он достоин жениться на Анджеле, сестре Джеймса.-kinopoisk.ru: 6.206 (3085)
imdb.com: 6.20 (32 891)
MPAA: PG-13 - Детям до 13 лет просмотр не желателен-Качество: BDRip
Контейнер: AVI
Видео: 688x288 (2.39:1), 23.976 fps, XviD build 65 ~907 kbps avg, 0.19 bit/pixel
Аудио: 48 kHz, MPEG Layer 3, 2 ch, ~128.00 kbps avg-MediaInfo
General
Complete name                            : E:\Films\Релизы\Боевики\Ride.Along.2014.BDRip.Dub.All.Films.avi
Format                                   : AVI
Format/Info                              : Audio Video Interleave
File size                                : 744 MiB
Duration                                 : 1h 39mn
Overall bit rate                         : 1 045 Kbps
Movie name                               : Ride.Along.2014.BDRip.Dub.All.Films
Director                                 : DIABLO93
Genre                                    : Action/Comedy
Writing application                      : VirtualDubMod 1.5.10.3 | www.virtualdub-fr.org || (build 2550/release)
Original source form/Name                : Movie
Copyright                                :
Video
ID                                       : 0
Format                                   : MPEG-4 Visual
Format profile                           : Advanced Simple@L5
Format settings, BVOP                    : 2
Format settings, QPel                    : No
Format settings, GMC                     : No warppoints
Format settings, Matrix                  : Custom
Codec ID                                 : XVID
Codec ID/Hint                            : XviD
Duration                                 : 1h 39mn
Bit rate                                 : 908 Kbps
Width                                    : 688 pixels
Height                                   : 288 pixels
Display aspect ratio                     : 2.40:1
Frame rate                               : 23.976 fps
Color space                              : YUV
Chroma subsampling                       : 4:2:0
Bit depth                                : 8 bits
Scan type                                : Progressive
Compression mode                         : Lossy
Bits/(Pixel*Frame)                       : 0.191
Stream size                              : 646 MiB (87%)
Writing library                          : XviD 65
Audio
ID                                       : 1
Format                                   : MPEG Audio
Format version                           : Version 1
Format profile                           : Layer 3
Mode                                     : Joint stereo
Mode extension                           : MS Stereo
Codec ID                                 : 55
Codec ID/Hint                            : MP3
Duration                                 : 1h 39mn
Bit rate mode                            : Constant
Bit rate                                 : 128 Kbps
Channel(s)                               : 2 channels
Sampling rate                            : 48.0 KHz
Compression mode                         : Lossy
Stream size                              : 91.1 MiB (12%)
Alignment                                : Aligned on interleaves
Interleave, duration                     : 42 ms (1.00 video frame)
Interleave, preload duration             : 504 ms

-
Сэмпл Скриншоты
Скачать

Скачать торрент!

Как скачивать? · Что такое торрент? · Рейтинг и ограничения

Сайт не распространяет и не хранит электронные версии произведений, а лишь предоставляет доступ к создаваемому пользователями каталогу ссылок на торрент-файлы, которые содержат только списки хеш-сумм

[Профиль] [ЛС]
Показать сообщения:    
Ответить на тему

Текущее время: Сегодня 01:16

Часовой пояс: GMT + 4



Вы не можете начинать темы
Вы не можете отвечать на сообщения
Вы не можете редактировать свои сообщения
Вы не можете удалять свои сообщения
Вы не можете голосовать в опросах
Вы не можете прикреплять файлы к сообщениям
Вы не можете скачивать файлы