Жизнь Пипли / Дело было в Пипли / Peepli Live (Ануша Ризви / Anusha Rizvi, Махмуд Фарукуа / Mahmood Farooqui) [2010, Индия, Драма, комедия, HDRip] MVO (Zee TV)

Ответить на тему
 
Автор Сообщение

user ®

Стаж: 12 лет

Сообщений: 15092

Пост Пост: #1 от 10-Июл-2014 08:50

[Цитировать]

Жизнь Пипли / Peepli [Live]
-Страна: Индия
Жанр: Драма, комедия
Год выпуска: 2010
Продолжительность: 01:50:00-Перевод: Профессиональный (многоголосый закадровый) - Zee TV
Субтитры: Нет--Режиссеры:
Ануша Ризви / Anusha Rizvi
Махмуд Фарукуа / Mahmood Farooqui-В ролях: Омкар Дас Маникпури, Рагхувир Ядав, Фаррукх Джаффер, Малайка Шеной, Шалини Ватса, Насируддин Шах, Ситарам Панчал-Описание: Бедные крестьяне Будхия и Натха из глухой деревни Пипли взяли в банке кредит на лечение матери и не смогли его выплатить. Банк грозится отобрать у них земельный участок. Будхия обращается за помощью к общественному деятелю Тхакуру. Тот на полном серьёзе говорит, что правительство не может оказать им никакую помощь, но, если кто-то из них покончит с собой, то ему в качестве компенсации выдадут 100 тыс. рупий. Будхия уговаривает Натха уйти из жизни. Об этом плане узнают журналисты и приезжают в деревню в ожидании сенсации...-
Доп. информация:
До сих пор 2/3 населения Индии живёт, точнее выживает в таких отдалённых деревнях. За последние 10 лет 150 тысяч отчаявшихся крестьян-должников покончили с собой. Большинство актёров в этом фильме - из театральной труппы "Найя Тхиетар" недавно скончавшегося Хабиб Танвира. Был в конкурсной программе на кинофестивале в Берлине и на кинофестивале в Санданс (США). На 31 Международном кинофестивале в Дурбане (Южная Африка) был признан лучшим художественным фильмом. Фильм выдвинут Индией на отбор в номинацию "лучший иностранный фильм" премии Оскар 2010.-- | --Качество видео: HDRip
Формат видео: AVI-Видео: 720x384 (1.88:1), 24.000 fps, XviD build 50 ~1689 kbps avg, 0.25 bit/pixel
Аудио: 48 kHz, AC3 Dolby Digital, 2/0 (L,R) ch, ~192 kbps-Сэмпл / Sample
-
Риппер, сведение звука: soso4eg-Внимание! Присутствует легкое запинание звука, так вещает канал Zee TV ((-- -
-
Скриншот с названием:
-
Скриншоты
-
MI
Общее
Полное имя : E:\[ИНДИЯ]\[Релизы]\Zhizn.Pipli.2010.HDRip.XviD-soso4eg.avi
Формат : AVI
Формат/Информация : Audio Video Interleave
Размер файла : 1,45 Гбайт
Продолжительность : 1 ч. 50 м.
Общий поток : 1891 Кбит/сек
Название фильма : Peepli.Live.2010.HDRip.XviD-soso4eg.avi
Режиссёр : soso4eg
Программа кодирования : VirtualDubMod 1.5.10.3 | www.virtualdub-fr.org || (build 2550/release)
Библиотека кодирования : VirtualDubMod build 2550/release
Формат оригинала/Имя : Movie
Правообладатель : специально для BitTorrent трекер *** (ex torrents.ru)
Примечание : пер. Zee TV
Видео
Идентификатор : 0
Формат : MPEG-4 Visual
Профиль формата : Advanced Simple@L5
Параметр BVOP формата : 1
Параметр QPel формата : Нет
Параметр GMC формата : Без точки перехода
Параметр матрицы формата : Default (H.263)
Идентификатор кодека : XVID
Идентификатор кодека/Подсказка : XviD
Продолжительность : 1 ч. 50 м.
Битрейт : 1689 Кбит/сек
Ширина : 720 пикселей
Высота : 384 пикселя
Соотношение сторон : 1,85:1
Частота кадров : 24,000 кадра/сек
Цветовое пространство : YUV
Субдискретизация насыщенности : 4:2:0
Битовая глубина : 8 бит
Тип развёртки : Прогрессивная
Метод сжатия : С потерями
Бит/(Пиксели*Кадры) : 0.255
Размер потока : 1,30 Гбайт (89%)
Библиотека кодирования : XviD 1.2.1 (UTC 2008-12-04)
Аудио
Идентификатор : 1
Формат : AC-3
Формат/Информация : Audio Coding 3
Расширение режима : CM (complete main)
Параметр Endianness формата : Big
Идентификатор кодека : 2000
Продолжительность : 1 ч. 50 м.
Вид битрейта : Постоянный
Битрейт : 192 Кбит/сек
Каналы : 2 канала
Расположение каналов : Front: L R
Частота : 48,0 КГц
Битовая глубина : 16 бит
Метод сжатия : С потерями
Размер потока : 151 Мбайт (10%)
Выравнивание : Разделение по промежуткам
Продолжительность промежутка : 42 мс. (1,00 видеокадр)
Время предзагрузки промежутка : 500 мс.
Скачать

Скачать торрент! Жизнь Пипли / Дело было в Пипли / Peepli Live (Ануша Ризви / Anusha Rizvi, Махмуд Фарукуа / Mahmood Farooqui) [2010, Индия, Драма, комедия, HDRip] MVO (Zee TV)

Как скачивать? · Что такое торрент? · Рейтинг и ограничения

Сайт не распространяет и не хранит электронные версии произведений, а лишь предоставляет доступ к создаваемому пользователями каталогу ссылок на торрент-файлы, которые содержат только списки хеш-сумм

[Профиль] [ЛС]
Показать сообщения:    
Ответить на тему

Текущее время: Сегодня 15:55

Часовой пояс: GMT + 4



Вы не можете начинать темы
Вы не можете отвечать на сообщения
Вы не можете редактировать свои сообщения
Вы не можете удалять свои сообщения
Вы не можете голосовать в опросах
Вы не можете прикреплять файлы к сообщениям
Вы не можете скачивать файлы