Долгое падение / A Long Way Down (Паскаль Шомель / Pascal Shomel) [2014 г., Великобритания, Германия, драма, комедия, HDRip] Dub (Line)

Ответить на тему
 
Автор Сообщение

user ®

Стаж: 7 лет 7 месяцев

Сообщений: 20008

Пост Пост: #1 от 10-Июл-2014 08:50

[Цитировать]

Долгое падениеA Long Way Down_____________________________________________________________________ Год выпуска: 2014
Производство: Великобритания, Германия
Жанр: драма, комедия
Перевод: Профессиональный (полное дублирование) (Line)
Субтитры: Отсутствуют
Оригинальная дорожка: Отсутствует
Продолжительность: 01:36:27
Режиссер: Паскаль Шомель
В ролях: Пирс Броснан, Аарон Пол, Сэм Нил, Розамунд Пайк, Имоджен Путс, Тони Коллетт, Таппенс Мидлтон, Зара Уайт, Джо Коул, Эвелин Дуа
Описание: Четверо незнакомцев встречаются в канун Нового Года на крыше лондонского небоскреба. Каждый из них поднялся с одной целью — прыгнуть. Очередь в лучший мир заставляет их заключить пакт — дожить до Дня всех влюбленных и оторваться по полной.
Качество видео: HDRip [сэмпл]
Видеокодек: XviD
Аудиокодек: AC3
Видео: 640x272 (2.35:1), 24 fps, XviD build 50, 877 kbps avg, 0.21 bit/pixel
Аудио: 48 kHz, AC3 Dolby Digital, 2/0 (L,R) ch, 128 kbps
Рейтинг Скриншоты MediaInfo

Общее
Полное имя : D:\Dolgoe.padenie.2014.HDRip.700Mb.avi
Формат : AVI
Формат/Информация : Audio Video Interleave
Размер файла : 700 Мбайт
Продолжительность : 1 ч. 36 м.
Общий поток : 1015 Кбит/сек
Программа кодирования : VirtualDubMod 1.5.10.2 (build 2540/release)
Библиотека кодирования : VirtualDubMod build 2540/release
Видео
Идентификатор : 0
Формат : MPEG-4 Visual
Профиль формата : Advanced Simple@L5
Параметр BVOP формата : 2
Параметр QPel формата : Нет
Параметр GMC формата : Без точки перехода
Параметр матрицы формата : Выборочная
Идентификатор кодека : XVID
Идентификатор кодека/Подсказка : XviD
Продолжительность : 1 ч. 36 м.
Битрейт : 877 Кбит/сек
Ширина : 640 пикселей
Высота : 272 пикселя
Соотношение сторон : 2,35:1
Частота кадров : 24,000 кадра/сек
Цветовое пространство : YUV
Субдискретизация насыщенности : 4:2:0
Битовая глубина : 8 бит
Тип развёртки : Прогрессивная
Метод сжатия : С потерями
Бит/(Пиксели*Кадры) : 0.210
Размер потока : 605 Мбайт (86%)
Библиотека кодирования : XviD 1.2.1 (UTC 2008-12-04)
Аудио
Идентификатор : 1
Формат : AC-3
Формат/Информация : Audio Coding 3
Расширение режима : CM (complete main)
Параметр Endianness формата : Big
Идентификатор кодека : 2000
Продолжительность : 1 ч. 36 м.
Вид битрейта : Постоянный
Битрейт : 128 Кбит/сек
Каналы : 2 канала
Расположение каналов : Front: L R
Частота : 48,0 КГц
Битовая глубина : 16 бит
Метод сжатия : С потерями
Размер потока : 88,3 Мбайт (13%)
Выравнивание : Разделение по промежуткам
Продолжительность промежутка : 42 мс. (1,00 видеокадр)
Время предзагрузки промежутка : 500 мс.
Скачать

Скачать торрент!

Как скачивать? · Что такое торрент? · Рейтинг и ограничения

Сайт не распространяет и не хранит электронные версии произведений, а лишь предоставляет доступ к создаваемому пользователями каталогу ссылок на торрент-файлы, которые содержат только списки хеш-сумм

[Профиль] [ЛС]
Показать сообщения:    
Ответить на тему

Текущее время: Сегодня 00:11

Часовой пояс: GMT + 4



Вы не можете начинать темы
Вы не можете отвечать на сообщения
Вы не можете редактировать свои сообщения
Вы не можете удалять свои сообщения
Вы не можете голосовать в опросах
Вы не можете прикреплять файлы к сообщениям
Вы не можете скачивать файлы