Долгое падение / A Long Way Down (Паскаль Шомель / Pascal Chaumeil) [2014, Великобритания, Германия, Драма, комедия, HDRip] Dub

Ответить на тему
 
Автор Сообщение

user ®

Стаж: 7 лет 7 месяцев

Сообщений: 20008

Пост Пост: #1 от 10-Июл-2014 08:50

[Цитировать]

-Долгое падение / A Long Way Down- -Страна: Великобритания, Германия
Жанр: Драма, комедия
Год выпуска: 2014
Продолжительность: 01:35:45
Перевод: Профессиональный (дублированный) [Лицензия]
Cубтитры: нет--Режиссер: Паскаль Шомель / Pascal Chaumeil
В ролях: Пирс Броснан, Имоджен Путс, Аарон Пол, Тони Коллетт, Сэм Нил, Таппенс Мидлтон, Розамунд Пайк, Зара Уайт, Джо Коул, Эвелин Дуа--Описание: Четверо незнакомцев встречаются в канун Нового Года на крыше лондонского небоскреба. Каждый из них поднялся с одной целью — прыгнуть. Очередь в лучший мир заставляет их заключить пакт — дожить до Дня всех влюбленных и оторваться по полной.--Качество видео: HDRip [Исходник BDRip 720p]
Формат видео: AVI
Видео: AVI XviD, 720x304 (2.35:1), 24.000 fps, 1 721 Kbps
Аудио: AC3, 48.0 KHz, 448 Kbps, 6 ch-- | Сэмпл-
-
MediaInfo
General
Complete name : ...\A.Long.Way.Down.2014.D.HDRip.avi
Format : AVI
Format/Info : Audio Video Interleave
File size : 1.46 GiB
Duration : 1h 35mn
Overall bit rate : 2 178 Kbps
Writing application : VirtualDubMod 1.5.10.2 (build 2540/release)
Writing library : VirtualDubMod build 2540/release
Video
ID : 0
Format : MPEG-4 Visual
Format profile : Advanced Simple@L5
Format settings, BVOP : 2
Format settings, QPel : No
Format settings, GMC : No warppoints
Format settings, Matrix : Custom
Codec ID : XVID
Codec ID/Hint : XviD
Duration : 1h 35mn
Bit rate : 1 721 Kbps
Width : 720 pixels
Height : 304 pixels
Display aspect ratio : 2.35:1
Frame rate : 24.000 fps
Color space : YUV
Chroma subsampling : 4:2:0
Bit depth : 8 bits
Scan type : Progressive
Compression mode : Lossy
Bits/(Pixel*Frame) : 0.328
Stream size : 1.15 GiB (79%)
Writing library : XviD 1.2.1 (UTC 2008-12-04)
Audio
ID : 1
Format : AC-3
Format/Info : Audio Coding 3
Mode extension : CM (complete main)
Format settings, Endianness : Big
Codec ID : 2000
Duration : 1h 35mn
Bit rate mode : Constant
Bit rate : 448 Kbps
Channel(s) : 6 channels
Channel positions : Front: L C R, Side: L R, LFE
Sampling rate : 48.0 KHz
Bit depth : 16 bits
Compression mode : Lossy
Stream size : 307 MiB (21%)
Alignment : Split accross interleaves
Interleave, duration : 42 ms (1.00 video frame)
Interleave, preload duration : 500 ms
Скриншот c названием фильма Скриншоты
Скачать

Скачать торрент!

Как скачивать? · Что такое торрент? · Рейтинг и ограничения

Сайт не распространяет и не хранит электронные версии произведений, а лишь предоставляет доступ к создаваемому пользователями каталогу ссылок на торрент-файлы, которые содержат только списки хеш-сумм

[Профиль] [ЛС]
Показать сообщения:    
Ответить на тему

Текущее время: Сегодня 08:36

Часовой пояс: GMT + 4



Вы не можете начинать темы
Вы не можете отвечать на сообщения
Вы не можете редактировать свои сообщения
Вы не можете удалять свои сообщения
Вы не можете голосовать в опросах
Вы не можете прикреплять файлы к сообщениям
Вы не можете скачивать файлы