Отчаянные смельчаки / Daredevils / Za ji wang ming dui (Чанг Че / Chang Cheh) [1979, Гонконг, боевые искусства, DVDRip] AVO (С. Кузнецов) + Original Chi

Ответить на тему
 
Автор Сообщение

user ®

Стаж: 11 лет

Сообщений: 15151

Пост Пост: #1 от 09-Июл-2014 12:35

[Цитировать]

Отчаянные смельчаки / Daredevils / Za ji wang ming dui
Страна: Гонконг
Студия: Shaw Brothers
Жанр: боевые искусства
Год выпуска: 1979
Продолжительность: 01:39:51
Перевод: Авторский (одноголосый закадровый) С. Кузнецов
Cубтитры: нет
Оригинальная аудиодорожка: китайский
Режиссер: Чанг Че / Chang Cheh
В ролях: Ло Менг, Филлип Квок, Чианг Шенг, Ло Менг, Лу Фенг, Су Чиен
Описание: Гуожен (Филипп Квок), Фенг (Чианг Шенг) и Цуаньи (Лу Фенг) – неразлучные друзья, зарабатывающие на жизнь уличными акробатическими выступлениями. Однажды в город возвращается их старый друг Дайин (Ло Менг), который рассказывает, что всю его семью убил коварный бандит (Ванг Ли), оккупировавший власть в провинции. Дайин просит друзей помочь ему отомстить, но те решают, что без оружия они все равно ничего не смогут сделать. Дайин в итоге возвращается назад один и погибает. Теперь у его друзей нет иного выхода, кроме как завершить то, что он начал. (Akira)
II Сэмпл II IMDB II
Релиз группа:
Качество видео: DVDRip
Формат видео: AVI
Видео: Xvid 720x304 (2.37:1) 23.976fps Bit rate 1683Kbps b/p 0.321
Аудио 1: AC3 48.0 KHz 2ch. 192kbps rus avo
Аудио 2: AC3 48.0 KHz 2ch. 192kbps chi
MediaInfo
Общее
Полное имя : E:\torrent\Daredevils.1979.DVDRip.avi
Формат : AVI
Формат/Информация : Audio Video Interleave
Размер файла : 1,45 Гбайт
Продолжительность : 1 ч. 39 м.
Общий поток : 2082 Кбит/сек
Программа кодирования : VirtualDubMod 1.5.10.2 (build 2542/release)
Библиотека кодирования : VirtualDubMod build 2542/release
Видео
Идентификатор : 0
Формат : MPEG-4 Visual
Профиль формата : Advanced Simple@L5
Параметр BVOP формата : 2
Параметр QPel формата : Нет
Параметр GMC формата : Без точки перехода
Параметр матрицы формата : Default (H.263)
Идентификатор кодека : XVID
Идентификатор кодека/Подсказка : XviD
Продолжительность : 1 ч. 39 м.
Битрейт : 1683 Кбит/сек
Ширина : 720 пикселей
Высота : 304 пикселя
Соотношение сторон : 2,35:1
Частота кадров : 23,976 кадра/сек
Цветовое пространство : YUV
Субдискретизация насыщенности : 4:2:0
Битовая глубина : 8 бит
Тип развёртки : Прогрессивная
Метод сжатия : С потерями
Бит/(Пиксели*Кадры) : 0.321
Размер потока : 1,17 Гбайт (81%)
Библиотека кодирования : XviD 1.2.1 (UTC 2008-12-04)
Аудио #1
Идентификатор : 1
Формат : AC-3
Формат/Информация : Audio Coding 3
Расширение режима : CM (complete main)
Параметр Endianness формата : Big
Идентификатор кодека : 2000
Продолжительность : 1 ч. 39 м.
Вид битрейта : Постоянный
Битрейт : 192 Кбит/сек
Каналы : 2 канала
Расположение каналов : Front: L R
Частота : 48,0 КГц
Битовая глубина : 16 бит
Метод сжатия : С потерями
Размер потока : 137 Мбайт (9%)
Выравнивание : Разделение по промежуткам
Продолжительность промежутка : 42 мс. (1,00 видеокадр)
Время предзагрузки промежутка : 500 мс.
Аудио #2
Идентификатор : 2
Формат : AC-3
Формат/Информация : Audio Coding 3
Расширение режима : CM (complete main)
Параметр Endianness формата : Big
Идентификатор кодека : 2000
Продолжительность : 1 ч. 39 м.
Вид битрейта : Постоянный
Битрейт : 192 Кбит/сек
Каналы : 2 канала
Расположение каналов : Front: L R
Частота : 48,0 КГц
Битовая глубина : 16 бит
Метод сжатия : С потерями
Размер потока : 137 Мбайт (9%)
Выравнивание : Разделение по промежуткам
Продолжительность промежутка : 42 мс. (1,00 видеокадр)
Время предзагрузки промежутка : 500 мс.
Скриншот c названием фильма Скриншоты
Скачать

Скачать торрент! Отчаянные смельчаки / Daredevils / Za ji wang ming dui (Чанг Че / Chang Cheh) [1979, Гонконг, боевые искусства, DVDRip] AVO (С. Кузнецов) + Original Chi

Как скачивать? · Что такое торрент? · Рейтинг и ограничения

Сайт не распространяет и не хранит электронные версии произведений, а лишь предоставляет доступ к создаваемому пользователями каталогу ссылок на торрент-файлы, которые содержат только списки хеш-сумм

[Профиль] [ЛС]
Показать сообщения:    
Ответить на тему

Текущее время: Сегодня 19:04

Часовой пояс: GMT + 4



Вы не можете начинать темы
Вы не можете отвечать на сообщения
Вы не можете редактировать свои сообщения
Вы не можете удалять свои сообщения
Вы не можете голосовать в опросах
Вы не можете прикреплять файлы к сообщениям
Вы не можете скачивать файлы