Любовь, секс и химия / Любовь по рецепту и без / Better Living Through Chemistry (Дж. Мур / Geoff Moore, Д. Посаментир / David Posamentier) [2014, США, Драма, комедия, HDRip] MVO (Гараж Дубляж)

Ответить на тему
 
Автор Сообщение

user ®

Стаж: 7 лет 7 месяцев

Сообщений: 20008

Пост Пост: #1 от 09-Июл-2014 03:05

[Цитировать]

Любовь, секс и химия
Любовь по рецепту и без
Better Living Through Chemistry
Страна: США
Жанр: Драма, комедия
Год выпуска: 2014
Продолжительность: 01:31:43
Перевод: Любительский (многоголосый закадровый) Гараж Дубляж
Cубтитры: нет
Режиссер: Джофф Мур / Geoff Moore, Дэвид Посаментир / David Posamentier
В ролях: Сэм Рокуэлл, Оливия Уайлд, Мишель Монахэн, Бен Шварц, Кен Ховард, Джейн Фонда, Рэй Лиотта
Описание: Даг Варни — скромный фармацевт и подкаблучник. Всю жизнь окружающие пользовались его мягким характером и не принимали всерьёз. Но однажды произошла встреча, которая изменила всё. Её зовут Элизабет, она яркая, сексуальная, а ее девиз: «Жить нужно в кайф!». Она открыла глаза Дагу на то, что вся его жизнь сера и уныла, а ключ к успеху лежит у него перед носом. Стоит лишь протянуть руку. С этого момента Дага не узнать. Теперь он уверен в себе, женщины без ума от него в постели, а в спорте ему нет равных. Но увлекшись своей новой жизнью, он заходит слишком далеко, а, как известно, за все в жизни приходится платить.

Качество видео: HDRip
Формат видео: AVI
Видео: Xvid; 720x304 (2.35:1); 23.976 fps; 1 696 Kbps; 0.323 bpp
Аудио: Dolby AC3; 48000Hz; 6ch; 448kbps
MediaInfo
General
Complete name : Lubov.seks.i.himi9.2014.L.HDRip.1400MB.avi
Format : AVI
Format/Info : Audio Video Interleave
File size : 1.38 GiB
Duration : 1h 31mn
Overall bit rate : 2 153 Kbps
Writing application : VirtualDubMod 1.5.10.3 | www.virtualdub-fr.org || (build 2550/release)
Writing library : VirtualDubMod build 2550/release
Video
ID : 0
Format : MPEG-4 Visual
Format profile : Advanced Simple@L5
Format settings, BVOP : 2
Format settings, QPel : No
Format settings, GMC : No warppoints
Format settings, Matrix : Default (H.263)
Muxing mode : Packed bitstream
Codec ID : XVID
Codec ID/Hint : XviD
Duration : 1h 31mn
Bit rate : 1 696 Kbps
Width : 720 pixels
Height : 304 pixels
Display aspect ratio : 2.35:1
Frame rate : 23.976 fps
Color space : YUV
Chroma subsampling : 4:2:0
Bit depth : 8 bits
Scan type : Progressive
Compression mode : Lossy
Bits/(Pixel*Frame) : 0.323
Stream size : 1.09 GiB (79%)
Writing library : XviD 64
Audio
ID : 1
Format : AC-3
Format/Info : Audio Coding 3
Mode extension : CM (complete main)
Format settings, Endianness : Big
Codec ID : 2000
Duration : 1h 31mn
Bit rate mode : Constant
Bit rate : 448 Kbps
Channel(s) : 6 channels
Channel positions : Front: L C R, Side: L R, LFE
Sampling rate : 48.0 KHz
Bit depth : 16 bits
Compression mode : Lossy
Stream size : 294 MiB (21%)
Alignment : Split accross interleaves
Interleave, duration : 42 ms (1.00 video frame)
Interleave, preload duration : 500 ms
Скриншот c названием фильма Скриншоты
Скачать

Скачать торрент!

Как скачивать? · Что такое торрент? · Рейтинг и ограничения

Сайт не распространяет и не хранит электронные версии произведений, а лишь предоставляет доступ к создаваемому пользователями каталогу ссылок на торрент-файлы, которые содержат только списки хеш-сумм

[Профиль] [ЛС]
Показать сообщения:    
Ответить на тему

Текущее время: Сегодня 23:42

Часовой пояс: GMT + 4



Вы не можете начинать темы
Вы не можете отвечать на сообщения
Вы не можете редактировать свои сообщения
Вы не можете удалять свои сообщения
Вы не можете голосовать в опросах
Вы не можете прикреплять файлы к сообщениям
Вы не можете скачивать файлы