Однажды в Шанхае / Once Upon a Time in Shanghai (Чхин Пхо Вон / Ching-Po Wong) [2014, Гонконг, Китай, криминал, боевые искуства, HDRip] DVO

Ответить на тему
 
Автор Сообщение

user ®

Стаж: 11 лет

Сообщений: 15151

Пост Пост: #1 от 08-Июл-2014 12:10

[Цитировать]

Однажды в Шанхае / Once Upon a Time in Shanghai- -Страна: Гонконг, Китай
Жанр: криминал, боевые искуства
Год выпуска: 2014
Продолжительность: 01:34:59-Перевод: Любительский (двухголосый закадровый)-Cубтитры: нет
Оригинальная аудиодорожка: нет
Режиссер: Чхин Пхо Вон / Ching-Po Wong
В ролях: Саммо Хунг Кам-Бо, Филип Нг, Энди Он, Мишель Ху, Чен Куан Тай, Чжунчжи Мао, Цзян Люся...
Описание: 1930 год. Деревенский парнишка Ма Юн Чжень, обладатель убойного кулака, отправляется покорять Шанхай, пообещав матери не ввязываться в драки. В Шанхае Ма Юн Чжень встречает новых друзей и любовь. В такое непростое для города время Ма Юн Чжену придется нарушить обещание данное матери, чтобы спасти себя и близких в борьбе против городской банды, готовой пойти на все ради собственной выгоды и влияния.
Релиз от -
Сэмпл: http://multi-up.com/984953
Качество видео: HDRip
Формат видео: AVI
Видео: MPEG-4 Visual at 1744 Кбит/сек; 720 x 304 (2.368) at 24.000 fps
Аудио: AC-3 at 448 Кбит/сек; 6 каналов, 48,0 КГц
Автор -
MediaInfo
Общее
Полное имя : D:\Фильмы\Азиатские\Однажды в Шанхае\Once Upon a Time in Shanghai.2014.HDRip.XviD.1400MB. rip by [Assassin's Creed].avi
Формат : AVI
Формат/Информация : Audio Video Interleave
Размер файла : 1,46 Гбайт
Продолжительность : 1 ч. 34 м.
Общий поток : 2202 Кбит/сек
Программа кодирования : VirtualDubMod 1.5.10.3 | www.virtualdub-fr.org || (build 2550/release)
Библиотека кодирования : VirtualDubMod build 2550/release
Видео
Идентификатор : 0
Формат : MPEG-4 Visual
Профиль формата : Advanced Simple@L5
Параметр BVOP формата : 1
Параметр QPel формата : Нет
Параметр GMC формата : Без точки перехода
Параметр матрицы формата : Default (MPEG)
Идентификатор кодека : XVID
Идентификатор кодека/Подсказка : XviD
Продолжительность : 1 ч. 34 м.
Битрейт : 1744 Кбит/сек
Ширина : 720 пикселей
Высота : 304 пикселя
Соотношение сторон : 2,35:1
Частота кадров : 24,000 кадра/сек
Цветовое пространство : YUV
Субдискретизация насыщенности : 4:2:0
Битовая глубина : 8 бит
Тип развёртки : Прогрессивная
Метод сжатия : С потерями
Бит/(Пиксели*Кадры) : 0.332
Размер потока : 1,16 Гбайт (79%)
Библиотека кодирования : XviD 1.2.1 (UTC 2008-12-04)
Аудио
Идентификатор : 1
Формат : AC-3
Формат/Информация : Audio Coding 3
Расширение режима : CM (complete main)
Параметр Endianness формата : Big
Идентификатор кодека : 2000
Продолжительность : 1 ч. 34 м.
Вид битрейта : Постоянный
Битрейт : 448 Кбит/сек
Каналы : 6 каналов
Расположение каналов : Front: L C R, Side: L R, LFE
Частота : 48,0 КГц
Битовая глубина : 16 бит
Метод сжатия : С потерями
Размер потока : 304 Мбайт (20%)
Выравнивание : Разделение по промежуткам
Продолжительность промежутка : 42 мс. (1,00 видеокадр)
Время предзагрузки промежутка : 500 мс.
Скриншот c названием фильма Скриншоты
Скачать

Скачать торрент! Однажды в Шанхае / Once Upon a Time in Shanghai (Чхин Пхо Вон / Ching-Po Wong) [2014, Гонконг, Китай, криминал, боевые искуства, HDRip] DVO

Как скачивать? · Что такое торрент? · Рейтинг и ограничения

Сайт не распространяет и не хранит электронные версии произведений, а лишь предоставляет доступ к создаваемому пользователями каталогу ссылок на торрент-файлы, которые содержат только списки хеш-сумм

[Профиль] [ЛС]
Показать сообщения:    
Ответить на тему

Текущее время: Сегодня 02:17

Часовой пояс: GMT + 4



Вы не можете начинать темы
Вы не можете отвечать на сообщения
Вы не можете редактировать свои сообщения
Вы не можете удалять свои сообщения
Вы не можете голосовать в опросах
Вы не можете прикреплять файлы к сообщениям
Вы не можете скачивать файлы