Кайт / Kite (Ральф Зиман / Ralph Ziman) [2014 г., США, Мексика, боевик, WEB-DLRip-AVC] Dub (iTunes)

Ответить на тему
 
Автор Сообщение

user ®

Стаж: 7 лет 7 месяцев

Сообщений: 20008

Пост Пост: #1 от 08-Июл-2014 03:35

[Цитировать]

КайтKite_____________________________________________________________________ Год выпуска: 2014
Производство: США, Мексика
Жанр: боевик
Перевод: Профессиональный (полное дублирование) (iTunes)
Субтитры: Отсутствуют
Оригинальная дорожка: Отсутствует
Продолжительность: 01:29:50
Режиссер: Ральф Зиман
В ролях: Индиа Айсли, Сэмюэл Л. Джексон, Каллэн МакОлифф, Карл Бьюкс, Деон Лотз, Девилль Ванник, Теренс Бриджетт, Рассел Савадье, Лайонел Ньютон, Джеко Мюллер
Описание: Когда отец девушки по имени Кайт, полицейский, гибнет от рук мафии, она клянется найти и покарать виновных. Ее опекуном в этом нелегком деле становится Карл, напарник ее отца. Полная решимости отомстить за смерть родных, Кайт под руководством Карла становится холодным и бескомпромиссным убийцей. У ее жертв нет шанса на выживание, Кайт справляется с ними легко и жестоко. Появление в ее жизни ловкого и бесстрашного молодого человека резко меняет жизнь Кайт, которая начинает понимать, что и убийце не чужды чувства.
Качество видео: WEB-DLRip [сэмпл]
Видеокодек: MPEG-4 AVC/H.264
Аудиокодек: AC3 5.1
Видео: 1024х432 (2,40:1), 1927 kb/s, 23.976 fps, 0.182 b/px
Аудио: 48 kHz, AC3 Dolby Digital, 6 каналов (Front: L C R, Side: L R, LFE), 384 kb/s
Рейтинг Скриншоты MediaInfo

Общее
Уникальный идентификатор : 187319635843136627875404629976489039854 (0x8CEC7317F33FD5A2B04D897F82C697EE)
Полное имя : D:\Kayt.2014.x264.WEB-DLRip.mkv
Формат : Matroska
Версия формата : Version 1
Размер файла : 1,45 Гбайт
Продолжительность : 1 ч. 29 м.
Общий поток : 2313 Кбит/сек
Дата кодирования : UTC 2014-07-07 13:20:40
Программа кодирования : mkvmerge v2.1.0 ('Another Place To Fall') built on Aug 19 2007 13:40:07
Библиотека кодирования : libebml v0.7.7 + libmatroska v0.8.1
Видео
Идентификатор : 1
Формат : AVC
Формат/Информация : Advanced Video Codec
Профиль формата : High@L4.1
Параметр CABAC формата : Да
Параметр ReFrames формата : 8 кадров
Идентификатор кодека : V_MPEG4/ISO/AVC
Продолжительность : 1 ч. 29 м.
Битрейт : 1927 Кбит/сек
Ширина : 1024 пикселя
Высота : 432 пикселя
Соотношение сторон : 2,40:1
Режим частоты кадров : Постоянный
Частота кадров : 23,976 кадра/сек
Цветовое пространство : YUV
Субдискретизация насыщенности : 4:2:0
Битовая глубина : 8 бит
Тип развёртки : Прогрессивная
Бит/(Пиксели*Кадры) : 0.182
Размер потока : 1,18 Гбайт (81%)
Библиотека кодирования : x264 core 125 r2200 999b753
Настройки программы : cabac=1 / ref=8 / deblock=1:-2:-2 / analyse=0x3:0x113 / me=umh / subme=9 / psy=1 / psy_rd=1.00:0.00 / mixed_ref=1 / me_range=32 / chroma_me=1 / trellis=2 / 8x8dct=1 / cqm=0 / deadzone=21,11 / fast_pskip=0 / chroma_qp_offset=-2 / threads=6 / lookahead_threads=1 / sliced_threads=0 / nr=0 / decimate=0 / interlaced=0 / bluray_compat=0 / constrained_intra=0 / bframes=8 / b_pyramid=2 / b_adapt=2 / b_bias=0 / direct=3 / weightb=1 / open_gop=0 / weightp=2 / keyint=240 / keyint_min=23 / scenecut=40 / intra_refresh=0 / rc=2pass / mbtree=0 / bitrate=1927 / ratetol=1.0 / qcomp=0.60 / qpmin=0 / qpmax=69 / qpstep=4 / cplxblur=20.0 / qblur=0.5 / ip_ratio=1.40 / pb_ratio=1.30 / aq=1:1.10
Язык : English
Default : Да
Forced : Нет
Аудио
Идентификатор : 2
Формат : AC-3
Формат/Информация : Audio Coding 3
Расширение режима : CM (complete main)
Параметр Endianness формата : Big
Идентификатор кодека : A_AC3
Продолжительность : 1 ч. 29 м.
Вид битрейта : Постоянный
Битрейт : 384 Кбит/сек
Каналы : 6 каналов
Расположение каналов : Front: L C R, Side: L R, LFE
Частота : 48,0 КГц
Битовая глубина : 16 бит
Метод сжатия : С потерями
Размер потока : 247 Мбайт (17%)
Заголовок : Дублированный (iTunes)
Язык : Russian
Default : Да
Forced : Нет
Меню
00:00:00.000 : en:Глава 1
00:04:59.000 : en:Глава 2
00:10:29.000 : en:Глава 3
00:15:33.000 : en:Глава 4
00:20:44.000 : en:Глава 5
00:26:41.000 : en:Глава 6
00:31:57.000 : en:Глава 7
00:37:56.000 : en:Глава 8
00:42:30.000 : en:Глава 9
00:47:00.000 : en:Глава 10
00:52:16.000 : en:Глава 11
00:57:38.000 : en:Глава 12
01:02:19.000 : en:Глава 13
01:07:43.000 : en:Глава 14
01:13:56.000 : en:Глава 15
01:22:08.000 : en:Глава 16
Скачать

Скачать торрент!

Как скачивать? · Что такое торрент? · Рейтинг и ограничения

Сайт не распространяет и не хранит электронные версии произведений, а лишь предоставляет доступ к создаваемому пользователями каталогу ссылок на торрент-файлы, которые содержат только списки хеш-сумм

[Профиль] [ЛС]
Показать сообщения:    
Ответить на тему

Текущее время: Сегодня 21:41

Часовой пояс: GMT + 4



Вы не можете начинать темы
Вы не можете отвечать на сообщения
Вы не можете редактировать свои сообщения
Вы не можете удалять свои сообщения
Вы не можете голосовать в опросах
Вы не можете прикреплять файлы к сообщениям
Вы не можете скачивать файлы