Бесстрашная гиена / Fearless Hyena / Xiao quan guai zhao (Джеки Чан / Jackie Chan, Кеннет Цан / Kenneth Tsang) [1979 г., Гонконг, Южная Корея, боевик, комедия, BDRip] DVO (ДТВ / СТС) + VO (ТВ-6) + AVO (Визгунов) + Original (Chi) + Subs (Eng, Chi)

Ответить на тему
 
Автор Сообщение

user ®

Стаж: 13 лет

Сообщений: 15071

Пост Пост: #1 от 08-Июл-2014 00:25

[Цитировать]

--Бесстрашная гиена / Xiao quan guai zhao-- Страна: Гонконг, Южная Корея
Жанр: боевик, комедия
Год выхода: 1979
Продолжительность: 01:37:13
Перевод 1: профессиональный (двухголосый, закадровый) (ДТВ / СТС)
Перевод 2: профессиональный (одноголосый, закадровый) (ТВ-6)
Перевод 3: авторский (Сергей Визгунов)
Субтитры: английские, китайские
Оригинальная аудиодорожка: китайская (кантонский диалект)
Режиссер: Джеки Чан, Кеннет Цан
В ролях: Джеки Чан, Джеймс Тьен, Дин Шек, Хуи Лу Чен, Ши-Кван Йен, Куин Ли, Тин-чи Ченг, Чи-пинг Чанг, Чу Сиу Ва, Игл Хан Йинг
О фильме: На глазах юноши Ланга убийцы расправляются с любимым дедом, в прошлом знаменитым бойцом. Под руководством старого учителя Ланг обучается искусству борьбы, чтобы отомстить бандитам.
Дополнительно:
1. Серые пиксельные полосы и дефекты пленки по краям были почищены с помощью FillMargins и BalanceBorders.
2. Синхронизация перевода ДТВ - Gellard. Синхронизация перевода ТВ-6 - Ambulacetus (HDTracker).
3. В сети имеется также шестиканальная дорожка с переводом ТВ-6, где выделенные голоса были наложены на центральный канал оригинала. Не использована по причине низкого качества.

Релиз от -
Автор: Gellard
Сэмпл: скачать
Качество: BDRip (источник: AsianDVDClub / Blu-Ray Disk / 1080p)
Формат: AVI
Видео: 720x304 (2.37:1), 23.976 fps, XviD build 65 ~1935 kbps avg, 0.37 bit/pixel
Аудио #1: (DVO.DTV) 48 kHz, AC3 Dolby Digital, 2/0 (L,R) ch, 192 kbps avg
Аудио #2: (VO.TV-6) 48 kHz, AC3 Dolby Digital, 2/0 (L,R) ch, 192 kbps avg (отдельно)
Аудио #3: (AVO.VIZGUNOV) 48 kHz, AC3 Dolby Digital, 2/0 (L,R) ch, 192 kbps avg (отдельно)
Аудио #4: (CHI.CANTONESE) 48 kHz, AC3 Dolby Digital, 3/2 (L,C,R,l,r) + LFE ch, 384.00 kbps avg (отдельно)
Формат субтитров: softsub (SRT)-
-
Скриншоты
Скриншот с названием
MediaInfo
General
Complete name                            : Besstrashnaya.giena.1979.RUS.BDRip.XviD.AC3.-HQCLUB.avi
Format                                   : AVI
Format/Info                              : Audio Video Interleave
File size                                : 1.45 GiB
Duration                                 : 1h 37mn
Overall bit rate                         : 2 137 Kbps
Movie name                               : Бесстрашная гиена / Fearless Hyena / Xiao quan guai zhao (1979) BDRip
Director                                 : Gellard
Genre                                    : боевик, комедия
Writing application                      : VirtualDubMod 1.5.10.2 (build 2542/release)
Copyright                                : HQCLUB
Comment                                  : 07.07.2014
Video
ID                                       : 0
Format                                   : MPEG-4 Visual
Format profile                           : Advanced Simple@L5
Format settings, BVOP                    : 1
Format settings, QPel                    : No
Format settings, GMC                     : No warppoints
Format settings, Matrix                  : Custom
Codec ID                                 : XVID
Codec ID/Hint                            : XviD
Duration                                 : 1h 37mn
Bit rate                                 : 1 935 Kbps
Width                                    : 720 pixels
Height                                   : 304 pixels
Display aspect ratio                     : 2.35:1
Frame rate                               : 23.976 fps
Color space                              : YUV
Chroma subsampling                       : 4:2:0
Bit depth                                : 8 bits
Scan type                                : Progressive
Compression mode                         : Lossy
Bits/(Pixel*Frame)                       : 0.369
Stream size                              : 1.31 GiB (91%)
Writing library                          : XviD 65
Audio
ID                                       : 1
Format                                   : AC-3
Format/Info                              : Audio Coding 3
Mode extension                           : CM (complete main)
Format settings, Endianness              : Big
Codec ID                                 : 2000
Duration                                 : 1h 37mn
Bit rate mode                            : Constant
Bit rate                                 : 192 Kbps
Channel count                            : 2 channels
Channel positions                        : Front: L R
Sampling rate                            : 48.0 KHz
Bit depth                                : 16 bits
Compression mode                         : Lossy
Stream size                              : 134 MiB (9%)
Alignment                                : Split accross interleaves
Interleave, duration                     : 42 ms (1.00 video frame)
Interleave, preload duration             : 500 ms
Скачать

Скачать торрент! Бесстрашная гиена / Fearless Hyena / Xiao quan guai zhao (Джеки Чан / Jackie Chan, Кеннет Цан / Kenneth Tsang) [1979 г., Гонконг, Южная Корея, боевик, комедия, BDRip] DVO (ДТВ / СТС) + VO (ТВ-6) + AVO (Визгунов) + Original (Chi) + Subs (Eng, Chi)

Как скачивать? · Что такое торрент? · Рейтинг и ограничения

Сайт не распространяет и не хранит электронные версии произведений, а лишь предоставляет доступ к создаваемому пользователями каталогу ссылок на торрент-файлы, которые содержат только списки хеш-сумм

[Профиль] [ЛС]
Показать сообщения:    
Ответить на тему

Текущее время: Сегодня 16:32

Часовой пояс: GMT + 4



Вы не можете начинать темы
Вы не можете отвечать на сообщения
Вы не можете редактировать свои сообщения
Вы не можете удалять свои сообщения
Вы не можете голосовать в опросах
Вы не можете прикреплять файлы к сообщениям
Вы не можете скачивать файлы