Любить по-русски 2 (Евгений Матвеев) [1996, остросюжетная мелодрама, DVDRip]

Ответить на тему
 
Автор Сообщение

user ®

Стаж: 7 лет 7 месяцев

Сообщений: 20008

Пост Пост: #1 от 08-Июл-2014 00:25

[Цитировать]

Любить по-русски 2- Жанр: остросюжетная мелодрама
Год выпуска: 1996
Продолжительность: 01:30:09-Режиссёр:
Евгений Матвеев-В ролях:
Евгений Матвеев, Галина Польских, Георгий Мартиросян, Лариса Удовиченко, Ольга Егорова, Никита Джигурда.-Описание:
В первом фильме "Любить по-русски" три фермерские семьи воевали за право жить по-своему на своей земле. В фильме "Любить по-русски 2" жены воюют одни: надо вызволять из тюрьмы своих мужей, которых упрятали туда противники - продажные чиновники с местной мафией... События принимают неожиданный оборот. Герои не только выходят на свободу, но и становятся важными фигурами в предвыборной кампании: вчерашнего зека Мухина народ выдвигает на должность губернатора. Новые персонажи, новые любовные линии, нарастающее давление мафии делают фильм динамичным и захватывающим, что не мешает вновь проявиться трогательной романтике человеческих отношений.-
Для любой зрительской аудитории-Качество видео: DVDRip |
Формат видео: AVI | → //SAMPLE//
Видео: 672x496 (1.35:1), 25.000 fps, XviD build 65 ~2114 kbps avg, 0.25 bit/pixel
Аудио: 48.0 kHz, AC3 Dolby Digital, 2/0 (L,R) ch, ~192.00 kbps avg
Размер: 1493.68 Mb (1/3 DVD-R)
-MediaInfo
Общее
Полное имя : A:\Фильмы\Lubit_po_russki_2.1996.DVDRip.XviD.1.46Gb.AC3.avi
Формат : AVI
Формат/Информация : Audio Video Interleave
Размер файла : 1,46 Гбайт
Продолжительность : 1 ч. 30 м.
Общий поток : 2316 Кбит/сек
Программа кодирования : VirtualDubMod 1.5.10.3 | www.virtualdub-fr.org || (build 2550/release)
Библиотека кодирования : VirtualDubMod build 2550/release
Видео
Идентификатор : 0
Формат : MPEG-4 Visual
Профиль формата : Advanced Simple@L5
Параметр BVOP формата : 1
Параметр QPel формата : Нет
Параметр GMC формата : Без точки перехода
Параметр матрицы формата : Выборочная
Идентификатор кодека : XVID
Идентификатор кодека/Подсказка : XviD
Продолжительность : 1 ч. 30 м.
Битрейт : 2115 Кбит/сек
Ширина : 672 пикселя
Высота : 496 пикселей
Соотношение сторон : 1.35:1
Частота кадров : 25,000 кадров/сек
Цветовое пространство : YUV
Субдискретизация насыщенности : 4:2:0
Битовая глубина : 8 бит
Тип развёртки : Прогрессивная
Метод сжатия : С потерями
Бит/(Пиксели*Кадры) : 0.254
Размер потока : 1,33 Гбайт (91%)
Библиотека кодирования : XviD 65
Аудио
Идентификатор : 1
Формат : AC-3
Формат/Информация : Audio Coding 3
Расширение режима : CM (complete main)
Параметр Endianness формата : Big
Идентификатор кодека : 2000
Продолжительность : 1 ч. 30 м.
Вид битрейта : Постоянный
Битрейт : 192 Кбит/сек
Каналы : 2 канала
Расположение каналов : Front: L R
Частота : 48,0 КГц
Битовая глубина : 16 бит
Метод сжатия : С потерями
Размер потока : 124 Мбайт (8%)
Выравнивание : Разделение по промежуткам
Продолжительность промежутка : 40 мс. (1,00 видеокадр)
Время предзагрузки промежутка : 500 мс.
Скриншот c названием фильма Скриншоты
Скачать

Скачать торрент!

Как скачивать? · Что такое торрент? · Рейтинг и ограничения

Сайт не распространяет и не хранит электронные версии произведений, а лишь предоставляет доступ к создаваемому пользователями каталогу ссылок на торрент-файлы, которые содержат только списки хеш-сумм

[Профиль] [ЛС]
Показать сообщения:    
Ответить на тему

Текущее время: Сегодня 22:34

Часовой пояс: GMT + 4



Вы не можете начинать темы
Вы не можете отвечать на сообщения
Вы не можете редактировать свои сообщения
Вы не можете удалять свои сообщения
Вы не можете голосовать в опросах
Вы не можете прикреплять файлы к сообщениям
Вы не можете скачивать файлы