Всё и сразу (Роман Каримов) [2014, Россия, комедия, криминал, WEB-DLRip-AVC]

Ответить на тему
 
Автор Сообщение

user ®

Стаж: 7 лет 7 месяцев

Сообщений: 20008

Пост Пост: #1 от 08-Июл-2014 00:25

[Цитировать]

Всё и сразу


Страна: Россия
Студия: Инвада фильм
Жанр: комедия, криминал
Год выпуска: 2014
Продолжительность: 01:34:53
Перевод: Не требуется (русский)
Cубтитры: Нет
Режиссер:
Роман Каримов
В ролях:
Никита Ост, Антон Шурцов, Александр Паль, Юлия Хлынина, Артем Костюнёв, Андрей Муравьёв, Александр Шаляпин, Андрей Галактионов, Игорь Тарасевич, Ольга Возовая
Описание:
Тима и Дэн — друзья-неудачники из провинциального городка. Учеба позади, работать не тянет, девушек нет. На пути к мечте (выбиться в люди) и в надежде получить всё и сразу (без особого напряга) парни берутся выполнить задание местного бандюка и отправляются на дело, прихватив с собой автослесаря Жору, такого же полного лузера.
На кону внушительная сумма, главное — не облажаться и чётко инсценировать ограбление своего же, подставного наркокурьера. Но вот засада: роль курьера случайно достаётся честному дембелю Ване, который оказывается не в курсе схем и обещаний. И теперь в водовороте погонь, потасовок и перестрелок всем четверым нужно по-настоящему напрячься, чтобы грамотно разрулить ситуацию. И получить ВСЁ и СРАЗУ.

Релиз:
Автор рипа: Stalker oK
Сэмпл: multi-up
Качество видео: WEB-DLRip-AVC [WEB-DL 720p]
Формат видео: MKV
Видео кодек: AVC
Аудио кодек: AC3
Видео: 1822 Кбит/сек, 960*540 (16:9), в 24,000 кадр/сек, AVC
Аудио: Russian, 384 Кбит/сек, 48,0 КГц, 16 бит, 6 канала(ов), AC-3

MediaInfo
Общее
Уникальный идентификатор : 252388498757182976823295852615656635771 (0xBDE041B98D29ADC59DF337F5D0917D7B)
Полное имя : O:\temp\всё и сразу\Vse.i.srazu.2014.WEB-DLRip-AVC...stalkerok.new-team.mkv
Формат : Matroska
Размер файла : 1,46 Гбайт
Продолжительность : 1 ч. 34 м.
Общий поток : 2207 Кбит/сек
Название фильма : Всё и сразу (2014) (New-Team) (Rip by Stalker oK)
Дата кодирования : UTC 2014-07-06 18:56:31
Программа кодирования : mkvmerge v6.1.0 ('Old Devil') built on Mar 4 2013 09:10:42
Библиотека кодирования : libebml v1.3.0 + libmatroska v1.4.0
Видео
Идентификатор : 1
Формат : AVC
Формат/Информация : Advanced Video Codec
Профиль формата : High@L4.1
Параметр CABAC формата : Да
Параметр ReFrames формата : 12 кадры
Параметры GOP формата : M=1, N=2
Идентификатор кодека : V_MPEG4/ISO/AVC
Продолжительность : 1 ч. 34 м.
Битрейт : 1822 Кбит/сек
Ширина : 960 пикс.
Высота : 540 пикс.
Соотношение сторон : 16:9
Частота кадров : 24,000 кадр/сек
Цветовое пространство : YUV
Подвыборка цветности : 4:2:0
Битовая глубина : 8 бит
Тип развёртки : Прогрессивная
Бит/(Пиксели*Кадры) : 0.146
Размер потока : 1,18 Гбайт (81%)
Библиотека кодирования : x264 core 142 r2431 ac76440
Настройки программы : cabac=1 / ref=12 / deblock=1:-2:-1 / analyse=0x3:0x133 / me=umh / subme=11 / psy=1 / psy_rd=1.05:0.15 / mixed_ref=1 / me_range=48 / chroma_me=1 / trellis=2 / 8x8dct=1 / cqm=0 / deadzone=21,11 / fast_pskip=0 / chroma_qp_offset=-3 / threads=12 / lookahead_threads=3 / sliced_threads=0 / nr=0 / decimate=0 / interlaced=0 / bluray_compat=0 / constrained_intra=0 / bframes=14 / b_pyramid=2 / b_adapt=2 / b_bias=0 / direct=3 / weightb=1 / open_gop=0 / weightp=2 / keyint=240 / keyint_min=24 / scenecut=40 / intra_refresh=0 / rc_lookahead=80 / rc=2pass / mbtree=1 / bitrate=1822 / ratetol=1.0 / qcomp=0.70 / qpmin=0 / qpmax=69 / qpstep=4 / cplxblur=20.0 / qblur=0.5 / vbv_maxrate=20000 / vbv_bufsize=25000 / nal_hrd=none / filler=0 / ip_ratio=1.40 / aq=2:1.00
Аудио
Идентификатор : 2
Формат : AC-3
Формат/Информация : Audio Coding 3
Расширение режима : CM (complete main)
Идентификатор кодека : A_AC3
Продолжительность : 1 ч. 34 м.
Вид битрейта : Постоянный
Битрейт : 384 Кбит/сек
Канал(ы) : 6 канала(ов)
Расположение каналов : Front: L C R, Side: L R, LFE
Частота : 48,0 КГц
Битовая глубина : 16 бит
Метод сжатия : С потерями
Размер потока : 261 Мбайт (17%)
Язык : Russian
Меню
00:00:00.000 : en:Глава 1
00:07:17.000 : en:Глава 2
00:12:19.000 : en:Глава 3
00:17:32.000 : en:Глава 4
00:22:33.000 : en:Глава 5
00:27:35.000 : en:Глава 6
00:32:43.000 : en:Глава 7
00:37:46.000 : en:Глава 8
00:42:48.000 : en:Глава 9
00:48:02.000 : en:Глава 10
00:53:03.000 : en:Глава 11
00:58:05.000 : en:Глава 12
01:03:07.000 : en:Глава 13
01:08:09.000 : en:Глава 14
01:13:12.000 : en:Глава 15
01:18:12.000 : en:Глава 16
01:23:19.000 : en:Глава 17
01:28:23.000 : en:Глава 18
Скриншоты
Скачать

Скачать торрент!

Как скачивать? · Что такое торрент? · Рейтинг и ограничения

Сайт не распространяет и не хранит электронные версии произведений, а лишь предоставляет доступ к создаваемому пользователями каталогу ссылок на торрент-файлы, которые содержат только списки хеш-сумм

[Профиль] [ЛС]
Показать сообщения:    
Ответить на тему

Текущее время: Сегодня 03:55

Часовой пояс: GMT + 4



Вы не можете начинать темы
Вы не можете отвечать на сообщения
Вы не можете редактировать свои сообщения
Вы не можете удалять свои сообщения
Вы не можете голосовать в опросах
Вы не можете прикреплять файлы к сообщениям
Вы не можете скачивать файлы