Кайт / Kite (Ральф Зиман / Ralph Ziman) [2014, США, Мексика, боевик, WEB-DLRip] Dub [iTunes]

Ответить на тему
 
Автор Сообщение

user ®

Стаж: 7 лет 7 месяцев

Сообщений: 20008

Пост Пост: #1 от 08-Июл-2014 00:25

[Цитировать]

КайтKite«Месть будет красивой»- Страна: США, Мексика
Жанр: боевик
Год выпуска: 2014
Продолжительность: 01:29:50-Перевод: Профессиональный (полное дублирование) [iTunes]
Субтитры: нет
Режиссер: Ральф Зиман / Ralph Ziman
В ролях: Индиа Айсли, Сэмюэл Л. Джексон, Каллэн МакОлифф, Карл Бьюкс, Деон Лотз, Девилль Ванник, Теренс Бриджетт, Рассел Савадье, Лайонел Ньютон, Джеко Мюллер
Дублёры: Виктория Слуцкая (Sawa), Дмитрий Стрелков (Karl Aker), Глеб Гаврилов (Oburi), Станислав Концевич (Карл Бьюкс), Максим Сергеев, Надежда Страшко, Стас Войнич, Алексей Макрецкий (Деон Лотз), Андрей Матвеев (Теренс Бриджетт), Александр Аравушкин (Лайонел Ньютон), Сергей Куприянов (Kratsov), Вадим Романов (Зейн Мис)-Описание: Когда отец девушки по имени Кайт, полицейский, гибнет от рук мафии, она клянется найти и покарать виновных. Ее опекуном в этом нелегком деле становится Карл, напарник ее отца. Полная решимости отомстить за смерть родных, Кайт под руководством Карла становится холодным и бескомпромиссным убийцей. У ее жертв нет шанса на выживание, Кайт справляется с ними легко и жестоко. Появление в ее жизни ловкого и бесстрашного молодого человека резко меняет жизнь Кайт, которая начинает понимать, что и убийце не чужды чувства...-
MPAA: R - Лицам до 17 лет обязательно присутствие взрослого-Качество: WEB-DLRip | WEB-DL 720p | sample
Контейнер: AVI
Видео: XviD, 720x304 (2.35:1), 1021 kbps, 24 fps, 0,194 bpp
Аудио: MP3 / 2.0 / 48 kHz / 128 kbps /-Скриншоты Media Info
General
Complete name : E:\my_rip\Kait.2014.D.WEB-DLRip745.by.Дядя_Лёша.avi
Format : AVI
Format/Info : Audio Video Interleave
File size : 745 MiB
Duration : 1h 29mn
Overall bit rate : 1 159 Kbps
Writing application : VirtualDubMod 1.5.10.3 | www.virtualdub-fr.org || (build 2550/release)
Writing library : VirtualDubMod build 2550/release
Video
ID : 0
Format : MPEG-4 Visual
Format profile : Advanced Simple@L5
Format settings, BVOP : 1
Format settings, QPel : No
Format settings, GMC : No warppoints
Format settings, Matrix : Custom
Codec ID : XVID
Codec ID/Hint : XviD
Duration : 1h 29mn
Bit rate : 1 022 Kbps
Width : 720 pixels
Height : 304 pixels
Display aspect ratio : 2.35:1
Frame rate : 24.000 fps
Color space : YUV
Chroma subsampling : 4:2:0
Bit depth : 8 bits
Scan type : Progressive
Compression mode : Lossy
Bits/(Pixel*Frame) : 0.194
Stream size : 657 MiB (88%)
Writing library : XviD 73
Audio
ID : 1
Format : MPEG Audio
Format version : Version 1
Format profile : Layer 3
Mode : Joint stereo
Mode extension : MS Stereo
Codec ID : 55
Codec ID/Hint : MP3
Duration : 1h 29mn
Bit rate mode : Constant
Bit rate : 128 Kbps
Channel(s) : 2 channels
Sampling rate : 48.0 KHz
Compression mode : Lossy
Stream size : 82.3 MiB (11%)
Alignment : Aligned on interleaves
Interleave, duration : 42 ms (1.00 video frame)
Interleave, preload duration : 504 ms
Writing library : LAME3.99r
Encoding settings : -m j -V 4 -q 2 -lowpass 17 -b 128
Скачать

Скачать торрент!

Как скачивать? · Что такое торрент? · Рейтинг и ограничения

Сайт не распространяет и не хранит электронные версии произведений, а лишь предоставляет доступ к создаваемому пользователями каталогу ссылок на торрент-файлы, которые содержат только списки хеш-сумм

[Профиль] [ЛС]
Показать сообщения:    
Ответить на тему

Текущее время: Сегодня 10:44

Часовой пояс: GMT + 4



Вы не можете начинать темы
Вы не можете отвечать на сообщения
Вы не можете редактировать свои сообщения
Вы не можете удалять свои сообщения
Вы не можете голосовать в опросах
Вы не можете прикреплять файлы к сообщениям
Вы не можете скачивать файлы