Павильон саламандры / Pavillion Salamandre / Pavillion sanshouo (Масанори Томинага / Masanori Tominaga) [2006, Япония, комедия, DVDRip] AVO (С. Кузнецов) + Original Jap

Ответить на тему
 
Автор Сообщение

user ®

Стаж: 11 лет

Сообщений: 15151

Пост Пост: #1 от 07-Июл-2014 09:25

[Цитировать]

Павильон саламандры / Pavillion Salamandre / Pavillion sanshouo
Страна: Япония
Студия: Tokyo Theatres K.K.
Жанр: комедия
Год выпуска: 2006
Продолжительность: 01:38:11
Перевод: Авторский (одноголосый закадровый) С. Кузнецов
Cубтитры: нет
Оригинальная аудиодорожка: японский
Режиссер: Масанори Томинага / Masanori Tominaga
В ролях: Дзё Одагири, Касии Ю, Дзюндзи Такада, Юми Асоу, Кен Мицуйси
Описание: Семья Ниномия заботится о знаменитой саламандре Кинджиро, которой уже 140 лет. Правительство Японии выделяет из бюджета деньги на содержание национального символа, но якудза решает, что неплохо было бы получить часть этих денег. Дочь того, кто заботится о животном, прилагает все усилия, чтоб не дать им заполучить эти деньги.
II Сэмпл II IMDB II
Релиз группа:
Качество видео: DVDRip
Формат видео: AVI
Видео: Xvid 720x384 (1.88:1) 23.976fps Bit rate 1716Kbps b/p 0.259
Аудио 1: AC3 48.0 KHz 2ch. 192kbps rus avo
Аудио 2: AC3 48.0 KHz 2ch. 192kbps jap
MediaInfo
Общее
Полное имя : E:\torrent\Pavillion.Salamandre.2006.DVDRip.avi
Формат : AVI
Формат/Информация : Audio Video Interleave
Размер файла : 1,45 Гбайт
Продолжительность : 1 ч. 38 м.
Общий поток : 2114 Кбит/сек
Программа кодирования : VirtualDubMod 1.5.10.2 (build 2542/release)
Библиотека кодирования : VirtualDubMod build 2542/release
Видео
Идентификатор : 0
Формат : MPEG-4 Visual
Профиль формата : Advanced Simple@L5
Параметр BVOP формата : 2
Параметр QPel формата : Нет
Параметр GMC формата : Без точки перехода
Параметр матрицы формата : Default (H.263)
Идентификатор кодека : XVID
Идентификатор кодека/Подсказка : XviD
Продолжительность : 1 ч. 38 м.
Битрейт : 1716 Кбит/сек
Ширина : 720 пикселей
Высота : 384 пикселя
Соотношение сторон : 1,85:1
Частота кадров : 23,976 кадра/сек
Цветовое пространство : YUV
Субдискретизация насыщенности : 4:2:0
Битовая глубина : 8 бит
Тип развёртки : Прогрессивная
Метод сжатия : С потерями
Бит/(Пиксели*Кадры) : 0.259
Размер потока : 1,18 Гбайт (81%)
Библиотека кодирования : XviD 1.2.1 (UTC 2008-12-04)
Аудио #1
Идентификатор : 1
Формат : AC-3
Формат/Информация : Audio Coding 3
Расширение режима : CM (complete main)
Параметр Endianness формата : Big
Идентификатор кодека : 2000
Продолжительность : 1 ч. 38 м.
Вид битрейта : Постоянный
Битрейт : 192 Кбит/сек
Каналы : 2 канала
Расположение каналов : Front: L R
Частота : 48,0 КГц
Битовая глубина : 16 бит
Метод сжатия : С потерями
Размер потока : 135 Мбайт (9%)
Выравнивание : Разделение по промежуткам
Продолжительность промежутка : 42 мс. (1,00 видеокадр)
Время предзагрузки промежутка : 500 мс.
Аудио #2
Идентификатор : 2
Формат : AC-3
Формат/Информация : Audio Coding 3
Расширение режима : CM (complete main)
Параметр Endianness формата : Big
Идентификатор кодека : 2000
Продолжительность : 1 ч. 38 м.
Вид битрейта : Постоянный
Битрейт : 192 Кбит/сек
Каналы : 2 канала
Расположение каналов : Front: L R
Частота : 48,0 КГц
Битовая глубина : 16 бит
Метод сжатия : С потерями
Размер потока : 135 Мбайт (9%)
Выравнивание : Разделение по промежуткам
Продолжительность промежутка : 42 мс. (1,00 видеокадр)
Время предзагрузки промежутка : 500 мс.
Скриншот c названием фильма Скриншоты
Скачать

Скачать торрент! Павильон саламандры / Pavillion Salamandre / Pavillion sanshouo (Масанори Томинага / Masanori Tominaga) [2006, Япония, комедия, DVDRip] AVO (С. Кузнецов) + Original Jap

Как скачивать? · Что такое торрент? · Рейтинг и ограничения

Сайт не распространяет и не хранит электронные версии произведений, а лишь предоставляет доступ к создаваемому пользователями каталогу ссылок на торрент-файлы, которые содержат только списки хеш-сумм

[Профиль] [ЛС]
Показать сообщения:    
Ответить на тему

Текущее время: Сегодня 10:40

Часовой пояс: GMT + 4



Вы не можете начинать темы
Вы не можете отвечать на сообщения
Вы не можете редактировать свои сообщения
Вы не можете удалять свои сообщения
Вы не можете голосовать в опросах
Вы не можете прикреплять файлы к сообщениям
Вы не можете скачивать файлы