Мать / Mother / Madeo (Джун-хо Бон / Joon-ho Bong) [2009, Южная Корея, триллер, драма, криминал, детектив, BDRip-AVC] MVO (R5) + AVO (Юрий Сербин) + VO (@PD) + Original (Korean) + Subs (Rus, Eng)

Ответить на тему
 
Автор Сообщение

user ®

Стаж: 11 лет

Сообщений: 15151

Пост Пост: #1 от 07-Июл-2014 00:50

[Цитировать]

Мать / Mother / Madeo«Её любовь уже ничто не остановит»- Страна: Южная Корея
Жанр: триллер, драма, криминал, детектив
Год выпуска: 2009
Продолжительность: 02:09:01-Перевод №1: Профессиональный (многоголосый закадровый) - R5
Перевод №2: Авторский (одноголосый закадровый) - Юрий Сербин
Перевод №3: Одноголосый закадровый - @PD - отдельно в раздаче
Оригинальная аудиодорожка: Korean
Cубтитры: Russian (full - R5), English (full)
Навигация по главам: Присутствует - 23 главы-Режиссер: Джун-хо Бон / Joon-ho Bong
В ролях: Хей-йя Ким, Вон Бин, Ку Джин, Юн Чже Мун, Ми-сун Джун, Юнг-Сук Ли, Ву-Хи Чу, Джин Ку Ким, Мо Йенг Йео, Сае Биеок Сонг-Описание
Женщина спокойно живёт со своим двадцативосьмилетним сыном, занимаясь знахарством, помогая всем, нуждающимся в округе. Ни с того, ни с сего, её сына обвиняют в зверском убийстве. Матери надо доказать его невиновность или расстаться с ним на долгие года.
-
Download sample-Формат видео: AVI-Видео: 1 066x454 (2.35:1), 23.976 fps, x264 ~3121 kbps avg, 0.262 bit/pixel
Аудио №1: 48.0 kHz, AC3 Dolby Digital, 3/2 (L,C,R,l,r) + LFE ch, ~448 kbps | Профессиональный (многоголосый закадровый) - R5
Аудио №2: 48.0 kHz, AC3 Dolby Digital, 3/2 (L,C,R,l,r) + LFE ch, ~448 kbps | Авторский (одноголосый закадровый) - Юрий Сербин
Аудио №3: 48.0 kHz, AC3 Dolby Digital, 3/2 (L,C,R,l,r) + LFE ch, ~384 kbps | Одноголосый закадровый - @PD - отдельно в раздаче
Аудио №4: 48.0 kHz, AC3 Dolby Digital, 3/2 (L,C,R,l,r) + LFE ch, ~448 kbps | Korean-

MediaInfo
General
Unique ID : 235518348648736234714706028284380309768 (0xB12F2F1B61132D2897D1229F5F05E908)
Complete name : D:\Фильмы\Рипы\Madeo.2009.BDRip-AVC.eFK\Madeo.2009.BDRip-AVC.eFK.mkv
Format : Matroska
Format version : Version 4 / Version 2
File size : 4.03 GiB
Duration : 2h 9mn
Overall bit rate : 4 468 Kbps
Movie name : Madeo (2009) - Release for
Encoded date : UTC 2014-07-06 14:08:51
Writing application : mkvmerge v6.1.0 ('Old Devil') built on Mar 4 2013 09:10:42
Writing library : libebml v1.3.0 + libmatroska v1.4.0
Attachment : Yes
Video
ID : 1
Format : AVC
Format/Info : Advanced Video Codec
Format profile : High@L4.1
Format settings, CABAC : Yes
Format settings, ReFrames : 15 frames
Codec ID : V_MPEG4/ISO/AVC
Duration : 2h 9mn
Bit rate : 3 035 Kbps
Width : 1 066 pixels
Height : 454 pixels
Display aspect ratio : 2.35:1
Frame rate mode : Constant
Frame rate : 23.976 fps
Color space : YUV
Chroma subsampling : 4:2:0
Bit depth : 8 bits
Scan type : Progressive
Bits/(Pixel*Frame) : 0.262
Stream size : 2.74 GiB (68%)
Title : eFK
Writing library : x264 core 142 r2431kMod ac76440
Encoding settings : cabac=1 / ref=15 / deblock=1:-3:-3 / analyse=0x3:0x133 / me=umh / subme=11 / psy=1 / fade_compensate=0.00 / psy_rd=0.95:0.05 / mixed_ref=1 / me_range=48 / chroma_me=1 / trellis=2 / 8x8dct=1 / cqm=0 / deadzone=21,11 / fast_pskip=1 / chroma_qp_offset=-3 / threads=8 / lookahead_threads=2 / sliced_threads=0 / nr=0 / decimate=1 / interlaced=0 / bluray_compat=0 / constrained_intra=0 / fgo=0 / bframes=16 / b_pyramid=2 / b_adapt=2 / b_bias=0 / direct=3 / weightb=1 / open_gop=0 / weightp=2 / keyint=240 / keyint_min=23 / scenecut=40 / intra_refresh=0 / rc_lookahead=60 / rc=crf / mbtree=0 / crf=17.3000 / qcomp=0.70 / qpmin=0 / qpmax=69 / qpstep=4 / vbv_maxrate=50000 / vbv_bufsize=62500 / crf_max=0.0 / nal_hrd=none / filler=0 / ip_ratio=1.40 / pb_ratio=1.30 / aq=3:0.70
Default : Yes
Forced : No
Color primaries : BT.709
Transfer characteristics : BT.709
Matrix coefficients : BT.709
Audio #1
ID : 2
Format : AC-3
Format/Info : Audio Coding 3
Mode extension : CM (complete main)
Format settings, Endianness : Big
Codec ID : A_AC3
Duration : 2h 9mn
Bit rate mode : Constant
Bit rate : 448 Kbps
Channel count : 6 channels
Channel positions : Front: L C R, Side: L R, LFE
Sampling rate : 48.0 KHz
Bit depth : 16 bits
Compression mode : Lossy
Stream size : 413 MiB (10%)
Title : MVO (R5)
Language : Russian
Default : Yes
Forced : No
Audio #2
ID : 3
Format : AC-3
Format/Info : Audio Coding 3
Mode extension : CM (complete main)
Format settings, Endianness : Big
Codec ID : A_AC3
Duration : 2h 9mn
Bit rate mode : Constant
Bit rate : 448 Kbps
Channel count : 6 channels
Channel positions : Front: L C R, Side: L R, LFE
Sampling rate : 48.0 KHz
Bit depth : 16 bits
Compression mode : Lossy
Stream size : 413 MiB (10%)
Title : AVO (Юрий Сербин)
Language : Russian
Default : No
Forced : No
Audio #3
ID : 4
Format : AC-3
Format/Info : Audio Coding 3
Mode extension : CM (complete main)
Format settings, Endianness : Big
Codec ID : A_AC3
Duration : 2h 9mn
Bit rate mode : Constant
Bit rate : 448 Kbps
Channel count : 6 channels
Channel positions : Front: L C R, Side: L R, LFE
Sampling rate : 48.0 KHz
Bit depth : 16 bits
Compression mode : Lossy
Stream size : 413 MiB (10%)
Language : Korean
Default : No
Forced : No
Text #1
ID : 5
Format : UTF-8
Codec ID : S_TEXT/UTF8
Codec ID/Info : UTF-8 Plain Text
Title : full - R5
Language : Russian
Default : No
Forced : No
Text #2
ID : 6
Format : UTF-8
Codec ID : S_TEXT/UTF8
Codec ID/Info : UTF-8 Plain Text
Title : full
Language : English
Default : No
Forced : No
Menu
00:00:00.000 : en:Chapter 1
00:03:36.925 : en:Chapter 2
00:09:55.220 : en:Chapter 3
00:15:09.742 : en:Chapter 4
00:19:04.727 : en:Chapter 5
00:21:49.892 : en:Chapter 6
00:26:24.917 : en:Chapter 7
00:31:41.817 : en:Chapter 8
00:35:11.526 : en:Chapter 9
00:36:52.001 : en:Chapter 10
00:40:19.417 : en:Chapter 11
00:46:07.098 : en:Chapter 12
00:56:16.623 : en:Chapter 13
01:00:50.063 : en:Chapter 14
01:07:29.504 : en:Chapter 15
01:15:19.056 : en:Chapter 16
01:23:11.612 : en:Chapter 17
01:29:31.575 : en:Chapter 18
01:33:58.675 : en:Chapter 19
01:47:23.646 : en:Chapter 20
01:50:30.207 : en:Chapter 21
01:56:33.445 : en:Chapter 22
02:00:31.307 : en:Chapter 23
x264 log
x264 [info]: frame I:1026 Avg QP:14.29 size: 79741 PSNR Mean Y:48.69 U:51.41 V:52.35 Avg:49.49 Global:48.74
x264 [info]: frame P:34222 Avg QP:16.17 size: 36892 PSNR Mean Y:46.61 U:49.40 V:50.41 Avg:47.43 Global:46.68
x264 [info]: frame B:150365 Avg QP:18.29 size: 11147 PSNR Mean Y:45.76 U:49.07 V:50.29 Avg:46.68 Global:45.74
x264 [info]: consecutive B-frames: 1.4% 1.7% 4.3% 9.3% 10.6% 53.1% 5.3% 1.1% 2.6% 1.2% 1.7% 2.5% 1.6% 2.0% 0.6% 0.2% 0.9%
x264 [info]: mb I I16..4: 8.4% 76.9% 14.8%
x264 [info]: mb P I16..4: 0.5% 17.4% 1.2% P16..4: 23.9% 31.8% 18.0% 2.7% 0.3% skip: 4.2%
x264 [info]: mb B I16..4: 0.0% 1.3% 0.1% B16..8: 32.1% 25.4% 6.2% direct: 6.4% skip:28.4% L0:46.5% L1:40.1% BI:13.4%
x264 [info]: 8x8 transform intra:89.5% inter:54.9%
x264 [info]: direct mvs spatial:99.9% temporal:0.1%
x264 [info]: coded y,uvDC,uvAC intra: 96.5% 96.6% 89.9% inter: 30.2% 29.2% 9.7%
x264 [info]: i16 v,h,dc,p: 18% 6% 9% 67%
x264 [info]: i8 v,h,dc,ddl,ddr,vr,hd,vl,hu: 13% 7% 13% 9% 12% 12% 11% 11% 12%
x264 [info]: i4 v,h,dc,ddl,ddr,vr,hd,vl,hu: 21% 7% 5% 8% 14% 14% 11% 10% 10%
x264 [info]: i8c dc,h,v,p: 52% 17% 16% 15%
x264 [info]: Weighted P-Frames: Y:4.1% UV:2.3%
x264 [info]: ref P L0: 37.3% 9.4% 18.3% 6.5% 6.5% 4.0% 4.4% 2.1% 2.4% 1.7% 1.9% 1.4% 1.6% 1.1% 1.4% 0.1%
x264 [info]: ref B L0: 63.3% 12.9% 6.6% 3.9% 2.8% 2.6% 1.9% 1.3% 1.1% 1.1% 0.9% 0.9% 0.5% 0.2%
x264 [info]: ref B L1: 92.5% 7.5%
x264 [info]: SSIM Mean Y:0.9805121 (17.102db)
x264 [info]: PSNR Mean Y:45.931 U:49.144 V:50.323 Avg:46.832 Global:45.912 kb/s:3121.34
x264 [total]: encoded 185613 frames, 11.48 fps, 3121.34 kb/s
Screenshots Comparison
Source

Encode
Скачать

Скачать торрент! Мать / Mother / Madeo (Джун-хо Бон / Joon-ho Bong) [2009, Южная Корея, триллер, драма, криминал, детектив, BDRip-AVC] MVO (R5) + AVO (Юрий Сербин) + VO (@PD) + Original (Korean) + Subs (Rus, Eng)

Как скачивать? · Что такое торрент? · Рейтинг и ограничения

Сайт не распространяет и не хранит электронные версии произведений, а лишь предоставляет доступ к создаваемому пользователями каталогу ссылок на торрент-файлы, которые содержат только списки хеш-сумм

[Профиль] [ЛС]
Показать сообщения:    
Ответить на тему

Текущее время: Сегодня 17:04

Часовой пояс: GMT + 4



Вы не можете начинать темы
Вы не можете отвечать на сообщения
Вы не можете редактировать свои сообщения
Вы не можете удалять свои сообщения
Вы не можете голосовать в опросах
Вы не можете прикреплять файлы к сообщениям
Вы не можете скачивать файлы