Серая Шейка (Владимир Полковников, Леонид Амальрик) [1948 г., мультфильм, DVB]

Ответить на тему
 
Автор Сообщение

user ®

Стаж: 7 лет 7 месяцев

Сообщений: 20008

Пост Пост: #1 от 06-Июл-2014 21:40

[Цитировать]

Серая Шейка
Жанр: мультфильм
Год выпуска: 1948
Продолжительность: 00:19:20
Режиссёр: Владимир Полковников, Леонид Амальрик
Описание: мультфильм о серой уточке, оставшейся зимовать на севере, вдали от улетевшей в теплые страны стаи уток, о дружбе ее с зайцам и глухарем, об их борьбе с лисой ...
Доп. информация: по мотивам рассказа Д. Н. Мамина-Сибиряка

Трансляция спутникового канала: "Карусель"
Качество видео: DVB
Формат видео: MKV
Видео: MPEG2 Video, 720x576, 25 fps, 3400 kbps
Аудио 1: Dolby AC3, 1 ch, 48 kHz, 192 kbps - Оригинал | "Союзмультфильм" (1948)
Аудио 2: MPEG Audio, 2 сh, 48 kHz, 192 kbps - Переозвучка | "Студия АС" (2000)
Сравнение
1) [url=http://***/forum/viewtopic.php?t=1617151]http://***/forum/viewtopic.php?t=1617151[/url] Seriousss
http://screenshotcomparison.com/comparison/82242
2) [url=http://***/forum/viewtopic.php?t=3078344]http://***/forum/viewtopic.php?t=3078344[/url] den-dvd
http://screenshotcomparison.com/comparison/82247
3) [url=http://***/forum/viewtopic.php?t=3596420]http://***/forum/viewtopic.php?t=3596420[/url] Yabrat
http://screenshotcomparison.com/comparison/82249
4) [url=http://***/forum/viewtopic.php?t=2781386]http://***/forum/viewtopic.php?t=2781386[/url] mapcik3
http://screenshotcomparison.com/comparison/82250
5) [url=http://***/forum/viewtopic.php?t=1228899]http://***/forum/viewtopic.php?t=1228899[/url] nauris
http://screenshotcomparison.com/comparison/82251
6) [url=http://***/forum/viewtopic.php?t=586092]http://***/forum/viewtopic.php?t=586092[/url] kukuikar
http://screenshotcomparison.com/comparison/82252
7) [url=http://***/forum/viewtopic.php?t=1675082]http://***/forum/viewtopic.php?t=1675082[/url] qwweerty
http://screenshotcomparison.com/comparison/82254
MediaInfo
GeneralUnique ID : 186748580108296700648223315236353800836 (0x8C7E77DF3F5D062F8544A5D7B26CFA84)Complete name : Серая Шейка (1948)_DVB by SLuMeP.mkvFormat : MatroskaFormat version : Version 4 / Version 2File size : 527 MiBDuration : 19mn 20sOverall bit rate mode : VariableOverall bit rate : 3 806 KbpsMovie name : Серая Шейка (1948)Encoded date : UTC 2014-07-05 19:07:33Writing application : mkvmerge v7.0.0 ('Where We Going') 64bit built on Jun 9 2014 15:16:27Writing library : libebml v1.3.0 + libmatroska v1.4.1DURATION : 00:19:20.928000000NUMBER_OF_FRAMES : 36279NUMBER_OF_BYTES : 27862272_STATISTICS_WRITING_APP : mkvmerge v7.0.0 ('Where We Going') 64bit built on Jun 9 2014 15:16:27_STATISTICS_WRITING_DATE_UTC : 2014-07-05 19:07:33_STATISTICS_TAGS : BPS DURATION NUMBER_OF_FRAMES NUMBER_OF_BYTES
VideoID : 1Format : MPEG VideoFormat version : Version 2Format profile : Main@MainFormat settings, BVOP : NoFormat settings, Matrix : CustomCodec ID : V_MPEG2Codec ID/Info : MPEG 1 or 2 VideoDuration : 19mn 20sBit rate mode : VariableBit rate : 3 346 KbpsMaximum bit rate : 5 000 KbpsWidth : 720 pixelsHeight : 576 pixelsDisplay aspect ratio : 4:3Frame rate mode : ConstantFrame rate : 25.000 fpsStandard : PALColor space : YUVChroma subsampling : 4:2:0Bit depth : 8 bitsScan type : InterlacedScan order : Top Field FirstCompression mode : LossyBits/(Pixel*Frame) : 0.323Time code of first frame : 00:00:00:00Time code source : Group of pictures headerStream size : 463 MiB (88%)Title : [url=http://***/forum/viewtopic.php?t=4776701]http://***/forum/viewtopic.php?t=4776701[/url]Language : RussianDefault : YesForced : No
Audio #1ID : 2Format : AC-3Format/Info : Audio Coding 3Mode extension : CM (complete main)Format settings, Endianness : BigCodec ID : A_AC3Duration : 19mn 20sBit rate mode : ConstantBit rate : 192 KbpsChannel(s) : 1 channelChannel positions : Front: CSampling rate : 48.0 KHzBit depth : 16 bitsCompression mode : LossyStream size : 26.6 MiB (5%)Title : Оригинал | "Союзмультфильм" (1948)Language : RussianDefault : YesForced : No
Audio #2ID : 3Format : MPEG AudioFormat version : Version 1Format profile : Layer 2Codec ID : A_MPEG/L2Codec ID/Hint : MP2Duration : 19mn 20sBit rate mode : ConstantBit rate : 192 KbpsChannel(s) : 2 channelsSampling rate : 48.0 KHzCompression mode : LossyStream size : 26.6 MiB (5%)Title : Переозвучка | "Студия АС" (2000)Language : RussianDefault : NoForced : No
Скриншоты
Скачать

Скачать торрент!

Как скачивать? · Что такое торрент? · Рейтинг и ограничения

Сайт не распространяет и не хранит электронные версии произведений, а лишь предоставляет доступ к создаваемому пользователями каталогу ссылок на торрент-файлы, которые содержат только списки хеш-сумм

[Профиль] [ЛС]
Показать сообщения:    
Ответить на тему

Текущее время: Сегодня 03:51

Часовой пояс: GMT + 4



Вы не можете начинать темы
Вы не можете отвечать на сообщения
Вы не можете редактировать свои сообщения
Вы не можете удалять свои сообщения
Вы не можете голосовать в опросах
Вы не можете прикреплять файлы к сообщениям
Вы не можете скачивать файлы