Ливанские эмоции / Lebanon Emotion / Le-ba-non kam-jeong / Lebanon kamjeong (Юнг-хён Джунг / Young-heun Jung) [2013, Южная Корея, драма, HDRip] DVO (Культура) + Original Kor

Ответить на тему
 
Автор Сообщение

user ®

Стаж: 11 лет

Сообщений: 15151

Пост Пост: #1 от 06-Июл-2014 21:40

[Цитировать]

Ливанские эмоции / Lebanon Emotion / Le-ba-non kam-jeong / Lebanon kamjeong
Страна: Южная Корея
Жанр: драма
Год выпуска: 2013
Продолжительность: 01:45:19
Перевод: Профессиональный (двухголосый закадровый) Культура
Cубтитры: нет
Оригинальная аудиодорожка: корейский
Режиссер: Юнг-хён Джунг / Young-heun Jung
В ролях: Чой Сеонг-хо, Ким Джин-вук, Джанг Вон-йёнг, Ким Джа-гу, Джо Сеок-хьён
Описание: Зима. Хен-У, пережив смерть матери, решает побыть в одиночестве. Он снимает квартиру и отправляется на прогулку в ближайший лес. В то же время молодая девушка, пытаясь разобраться в своей запутанной прошлой жизни, делает один роковой звонок бывшему и тем самым запускает ряд трагических событий, в городе, в котором не должно быть преступности...
Сэмпл: http://multi-up.com/984451
Качество видео: HDRip
Формат видео: AVI
Видео: MPEG4, XviD, 720x400 (16/9), 23.976 fps, 1 581 Kbps (0.229 bit/pixel)
Аудио: AC-3, 48.0 KHz, 2 ch, 192 Kbps, CBR - русский
Аудио 2: AC-3, 48.0 KHz, 2 ch, 192 Kbps, CBR - корейский
MediaInfo
Общее
Полное имя : K:\Ливанские эмоции.avi
Формат : AVI
Формат/Информация : Audio Video Interleave
Размер файла : 1,46 Гбайт
Продолжительность : 1 ч. 45 м.
Общий поток : 1979 Кбит/сек
Название фильма : Ливанские эмоции / Lebanon Emotion / Le-ba-non kam-jeong / Lebanon kamjeong (2013)
Программа кодирования : VirtualDubMod 1.5.10.2 (build 2540/release)
Правообладатель : miha2154
Видео
Идентификатор : 0
Формат : MPEG-4 Visual
Профиль формата : Advanced Simple@L5
Параметр BVOP формата : 2
Параметр QPel формата : Нет
Параметр GMC формата : Без точки перехода
Параметр матрицы формата : Default (MPEG)
Идентификатор кодека : XVID
Идентификатор кодека/Подсказка : XviD
Продолжительность : 1 ч. 45 м.
Битрейт : 1581 Кбит/сек
Ширина : 720 пикселей
Высота : 400 пикселей
Соотношение сторон : 16:9
Частота кадров : 23,976 кадра/сек
Цветовое пространство : YUV
Субдискретизация насыщенности : 4:2:0
Битовая глубина : 8 бит
Тип развёртки : Прогрессивная
Метод сжатия : С потерями
Бит/(Пиксели*Кадры) : 0.229
Размер потока : 1,16 Гбайт (80%)
Библиотека кодирования : XviD 1.1.0 (UTC 2005-11-22)
Аудио #1
Идентификатор : 1
Формат : AC-3
Формат/Информация : Audio Coding 3
Расширение режима : CM (complete main)
Параметр Endianness формата : Big
Идентификатор кодека : 2000
Продолжительность : 1 ч. 45 м.
Вид битрейта : Постоянный
Битрейт : 192 Кбит/сек
Каналы : 2 канала
Расположение каналов : Front: L R
Частота : 48,0 КГц
Битовая глубина : 16 бит
Метод сжатия : С потерями
Размер потока : 145 Мбайт (10%)
Выравнивание : Разделение по промежуткам
Продолжительность промежутка : 42 мс. (1,00 видеокадр)
Время предзагрузки промежутка : 500 мс.
Заголовок : Профессиональный (двухголосый закадровый) Культура
Аудио #2
Идентификатор : 2
Формат : AC-3
Формат/Информация : Audio Coding 3
Расширение режима : CM (complete main)
Параметр Endianness формата : Big
Идентификатор кодека : 2000
Продолжительность : 1 ч. 45 м.
Вид битрейта : Постоянный
Битрейт : 192 Кбит/сек
Каналы : 2 канала
Расположение каналов : Front: L R
Частота : 48,0 КГц
Битовая глубина : 16 бит
Метод сжатия : С потерями
Размер потока : 145 Мбайт (10%)
Выравнивание : Разделение по промежуткам
Продолжительность промежутка : 42 мс. (1,00 видеокадр)
Время предзагрузки промежутка : 500 мс.
Заголовок : корейский
Скриншот с названием Скриншоты
Скачать

Скачать торрент! Ливанские эмоции / Lebanon Emotion / Le-ba-non kam-jeong / Lebanon kamjeong (Юнг-хён Джунг / Young-heun Jung) [2013, Южная Корея, драма, HDRip] DVO (Культура) + Original Kor

Как скачивать? · Что такое торрент? · Рейтинг и ограничения

Сайт не распространяет и не хранит электронные версии произведений, а лишь предоставляет доступ к создаваемому пользователями каталогу ссылок на торрент-файлы, которые содержат только списки хеш-сумм

[Профиль] [ЛС]
Показать сообщения:    
Ответить на тему

Текущее время: Сегодня 20:32

Часовой пояс: GMT + 4



Вы не можете начинать темы
Вы не можете отвечать на сообщения
Вы не можете редактировать свои сообщения
Вы не можете удалять свои сообщения
Вы не можете голосовать в опросах
Вы не можете прикреплять файлы к сообщениям
Вы не можете скачивать файлы