Эксперимент: Зло / The Quiet Ones (Джон Пог / John Pogue) [2014, США, Великобритания, ужасы, WEB-DLRip] VO (Xixidok) + Original Eng

Ответить на тему
 
Автор Сообщение

user ®

Стаж: 7 лет 7 месяцев

Сообщений: 20008

Пост Пост: #1 от 06-Июл-2014 21:40

[Цитировать]

Эксперимент: Зло / The Quiet Ones
Страна: США, Великобритания
Жанр: ужасы
Год выпуска: 2014
Продолжительность: 01:33:03
Перевод: Одноголосый закадровый Xixidok
Cубтитры: нет
Оригинальная аудиодорожка: английский
Режиссер: Джон Пог / John Pogue
В ролях: Джаред Харрис, Оливия Кук, Сэм Клафлин, Эрин Ричардс, Рори Флек-Бирн, Лори Кэлверт, Альдо Маланд, Макс Пиркис, Трэйси Рэй, Ричард Каннингэм
Описание: Неортодоксальный профессор, использующий в своей работе спорные методы, и его лучшие ученики проводят серию тестов на молодой пациентке, подводя ее к грани безумия. Эксперимент выходит из-под контроля, и начинают происходить ужасающие мистические явления с необратимыми последствиями. Группа понимает, что вызвала более страшные и темные силы, чем когда-либо могла себе представить, и против них она бессильна.
Доп. информация:

Сэмпл: http://multi-up.com/984548
Качество видео: WEB-DLRip
Формат видео: AVI
Видео: 720x384 (1.88:1), 25 fps, XviD MPEG-4 ~1794 kbps avg, 0.26 bit/pixel
Аудио: 44.100 kHz, MPEG Layer 3, 2 ch, ~192.00 kbps avg - Русский
Аудио 2: 44.1 kHz, AC3 Dolby Digital, 2/0 (L,R) ch, ~128 kbps - Английский
MediaInfo
General
Complete name : C:\Users\Вика\Desktop\The.Quiet.Ones.2014.WEBDLRip.avi
Format : AVI
Format/Info : Audio Video Interleave
File size : 1.38 GiB
Duration : 1h 33mn
Overall bit rate : 2 129 Kbps
Writing application : VirtualDubModRus 1.5.10.2 (build 2542/release)
Writing library : VirtualDubMod build 2542/release
Video
ID : 0
Format : MPEG-4 Visual
Format profile : Advanced Simple@L5
Format settings, BVOP : Yes
Format settings, QPel : No
Format settings, GMC : No warppoints
Format settings, Matrix : Default (H.263)
Codec ID : XVID
Codec ID/Hint : XviD
Duration : 1h 33mn
Bit rate : 1 796 Kbps
Width : 720 pixels
Height : 384 pixels
Display aspect ratio : 1.85:1
Frame rate : 25.000 fps
Color space : YUV
Chroma subsampling : 4:2:0
Bit depth : 8 bits
Scan type : Progressive
Compression mode : Lossy
Bits/(Pixel*Frame) : 0.260
Stream size : 1.17 GiB (84%)
Writing library : XviD 1.2.1 (UTC 2008-12-04)
Audio #1
ID : 1
Format : MPEG Audio
Format version : Version 1
Format profile : Layer 3
Codec ID : 55
Codec ID/Hint : MP3
Duration : 1h 33mn
Bit rate mode : Constant
Bit rate : 192 Kbps
Channel count : 2 channels
Sampling rate : 44.1 KHz
Compression mode : Lossy
Stream size : 128 MiB (9%)
Alignment : Split accross interleaves
Interleave, duration : 40 ms (1.00 video frame)
Interleave, preload duration : 500 ms
Audio #2
ID : 2
Format : AC-3
Format/Info : Audio Coding 3
Mode extension : CM (complete main)
Format settings, Endianness : Big
Codec ID : 2000
Duration : 1h 32mn
Bit rate mode : Constant
Bit rate : 128 Kbps
Channel count : 2 channels
Channel positions : Front: L R
Sampling rate : 44.1 KHz
Bit depth : 16 bits
Compression mode : Lossy
Delay relative to video : 20ms
Stream size : 84.2 MiB (6%)
Alignment : Split accross interleaves
Interleave, duration : 40 ms (1.01 video frame)
Interleave, preload duration : 500 ms
Скриншоты
Скачать

Скачать торрент!

Как скачивать? · Что такое торрент? · Рейтинг и ограничения

Сайт не распространяет и не хранит электронные версии произведений, а лишь предоставляет доступ к создаваемому пользователями каталогу ссылок на торрент-файлы, которые содержат только списки хеш-сумм

[Профиль] [ЛС]
Показать сообщения:    
Ответить на тему

Текущее время: Сегодня 11:56

Часовой пояс: GMT + 4



Вы не можете начинать темы
Вы не можете отвечать на сообщения
Вы не можете редактировать свои сообщения
Вы не можете удалять свои сообщения
Вы не можете голосовать в опросах
Вы не можете прикреплять файлы к сообщениям
Вы не можете скачивать файлы