Балдазер (Евгений Смирнов) [1997, мультфильм для взрослых, притча, DVDRip]

Ответить на тему
 
Автор Сообщение

user ®

Стаж: 7 лет 7 месяцев

Сообщений: 20008

Пост Пост: #1 от 06-Июл-2014 09:50

[Цитировать]

Балдазер
Страна: Россия
Производство: Аргус Интернейшнл
Жанр: мультфильм для взрослых, притча
Продолжительность: 00:01:06
Год выпуска: 1997
Русские субтитры: нет
Режиссёр: Евгений Смирнов
Описание: Надо же такое придумать, отремонтировать трактор, запустить в работу и оказаться на его пути...
Мультфильм Балдазер - такая своеобразная притча, созданная в качестве студенческой работы. Снят этот короткометражный мультик на киностудии Аргус Интернейшнл в 1997 году. Он - один из линейки анимационных фильмов, снятых для конкурсной серии «Дети в небе». Его отличают глубокий философский контекст, вырубленная как из камня анимация и этакая футуристическая жесткая музыка Оливье Мессиана. Одно название чего стоит - не то бульдозер, не то еще какое-то значение имеет это слово. Очень трудно трактовать однозначно эту картину. Мнения тех, кто видел этот мультфильм, довольно сильно отличаются, а зачастую диаметрально противоположны – кто-то описывает буквально картинку, которую видит на экране: «Мультфильм о человеке и тракторе». А кто-то говорит, что в сюжете длиной буквально минуту с небольшим заложен глубокий подтекст. Некоторые склоняются к мнению, что режиссер (он же и автор сценария) Евгений Смирнов проиллюстрировал победу машины над человеком, а другие считают, что все как раз таки наоборот, и это человек победил машину. Возможно, в этом и заключалась авторская задумка, в том, что сюжет можно трактовать и так, и эдак. Но одна мысль все же просматривается довольно отчетливо: не надо вмешиваться в ход вещей, а иначе может быть худо.

Кинопоиск
Качество: DVDRip
Формат: AVI
Видео: 640x480 (1.33:1), 25 fps, XviD MPEG-4 ~1100 kbps avg, 0.143 bit/pixel
Аудио: 48.0 kHz, MPEG Layer 3, 2 ch, ~128.00 kbps avg
Субтитры: Отсутствуют

Подробные технические данные
GeneralComplete name : E:\1\Балдазер 1997.aviFormat : AVIFormat/Info : Audio Video InterleaveFile size : 9.78 MiBDuration : 1mn 6sOverall bit rate : 1 239 KbpsWriting application : VirtualDubMod 1.5.10.2 (build 2540/release)Writing library : VirtualDubMod build 2540/release
VideoID : 0Format : MPEG-4 VisualFormat profile : Advanced Simple@L5Format settings, BVOP : 1Format settings, QPel : NoFormat settings, GMC : No warppointsFormat settings, Matrix : Default (MPEG)Codec ID : XVIDCodec ID/Hint : XviDDuration : 1mn 6sBit rate : 1 100 KbpsWidth : 640 pixelsHeight : 480 pixelsDisplay aspect ratio : 4:3Frame rate : 25.000 fpsColor space : YUVChroma subsampling : 4:2:0Bit depth : 8 bitsScan type : ProgressiveCompression mode : LossyBits/(Pixel*Frame) : 0.143Stream size : 8.69 MiB (89%)Writing library : XviD 1.2.1 (UTC 2008-12-04)
AudioID : 1Format : MPEG AudioFormat version : Version 1Format profile : Layer 3Codec ID : 55Codec ID/Hint : MP3Duration : 1mn 6sBit rate mode : ConstantBit rate : 128 KbpsChannel count : 2 channelsSampling rate : 48.0 KHzCompression mode : LossyStream size : 1.01 MiB (10%)Alignment : Aligned on interleavesInterleave, duration : 40 ms (1.01 video frame)Interleave, preload duration : 504 msWriting library : LAME3.98rEncoding settings : -m s -V 4 -q 0 -lowpass 17 -b 128
Скриншоты
Скачать

Скачать торрент!

Как скачивать? · Что такое торрент? · Рейтинг и ограничения

Сайт не распространяет и не хранит электронные версии произведений, а лишь предоставляет доступ к создаваемому пользователями каталогу ссылок на торрент-файлы, которые содержат только списки хеш-сумм

[Профиль] [ЛС]
Показать сообщения:    
Ответить на тему

Текущее время: Сегодня 02:15

Часовой пояс: GMT + 4



Вы не можете начинать темы
Вы не можете отвечать на сообщения
Вы не можете редактировать свои сообщения
Вы не можете удалять свои сообщения
Вы не можете голосовать в опросах
Вы не можете прикреплять файлы к сообщениям
Вы не можете скачивать файлы