Мастер Муши / Мастер Муси / Mushishi / Bugmaster / Mushi-Shi: The Movie (Кацухиро Отомо / Katsuhiro Ohtomo) [2006, Япония, фэнтези, HDRip] VO [Юки]

Ответить на тему
 
Автор Сообщение

user ®

Стаж: 11 лет

Сообщений: 15151

Пост Пост: #1 от 06-Июл-2014 00:20

[Цитировать]

Мастер Муши / Мастер Муси / Mushishi / Bugmaster / Mushi-Shi: The Movie- -Страна: Япония
Жанр: фэнтези
Год выпуска: 2006
Продолжительность: 02:11:02-Перевод: Одноголосый закадровый [Юки]
Cубтитры: нет
Оригинальная аудиодорожка: нет
Режиссер: Кацухиро Отомо / Katsuhiro Ohtomo
В ролях: Дзё Одагири, Нао Омори, Аои Ю, Лили, Макико Куно, Рэйа Морияма, Хидеюки Инада, Макико Есуми, Ро Нарусэ, Нумата Баку...
Описание: «Муши» — это не жуки, не насекомые и даже не микробы. Муши — это совершенно иная форма жизни. Их существование скрыто от большинства людей, и лишь некоторые знают, что они есть на свете. Гинко — «Повелитель Муши», странствующий по миру и пытающийся узнать об этих существах побольше. Заодно он помогает людям, которые попали в беду из-за чего-нибудь сверхъестественного.
Релиз от -
Качество видео: HDRip
Формат видео: AVI
Видео: MPEG-4 Visual at 1397 Кбит/сек; 704 x 384 (1.833) at 23.976 fps
Аудио: AC-3 at 192 Кбит/сек; 2 канала, 48,0 КГц
Автор -
MediaInfo
Общее
Полное имя : D:\Фильмы\Азиатские\Мастер Муши\Mushishi.2006.HDRip.XviD.1400MB. rip by [Assassin's Creed].avi
Формат : AVI
Формат/Информация : Audio Video Interleave
Размер файла : 1,46 Гбайт
Продолжительность : 2 ч. 11 м.
Общий поток : 1598 Кбит/сек
Программа кодирования : VirtualDubMod 1.5.10.3 | www.virtualdub-fr.org || (build 2550/release)
Библиотека кодирования : VirtualDubMod build 2550/release
Видео
Идентификатор : 0
Формат : MPEG-4 Visual
Профиль формата : Advanced Simple@L5
Параметр BVOP формата : 1
Параметр QPel формата : Нет
Параметр GMC формата : Без точки перехода
Параметр матрицы формата : Default (MPEG)
Идентификатор кодека : XVID
Идентификатор кодека/Подсказка : XviD
Продолжительность : 2 ч. 11 м.
Битрейт : 1397 Кбит/сек
Ширина : 704 пикселя
Высота : 384 пикселя
Соотношение сторон : 1,85:1
Частота кадров : 23,976 кадра/сек
Цветовое пространство : YUV
Субдискретизация насыщенности : 4:2:0
Битовая глубина : 8 бит
Тип развёртки : Прогрессивная
Метод сжатия : С потерями
Бит/(Пиксели*Кадры) : 0.215
Размер потока : 1,28 Гбайт (87%)
Библиотека кодирования : XviD 1.2.1 (UTC 2008-12-04)
Аудио
Идентификатор : 1
Формат : AC-3
Формат/Информация : Audio Coding 3
Расширение режима : CM (complete main)
Параметр Endianness формата : Big
Идентификатор кодека : 2000
Продолжительность : 2 ч. 11 м.
Вид битрейта : Постоянный
Битрейт : 192 Кбит/сек
Каналы : 2 канала
Расположение каналов : Front: L R
Частота : 48,0 КГц
Битовая глубина : 16 бит
Метод сжатия : С потерями
Размер потока : 180 Мбайт (12%)
Выравнивание : Разделение по промежуткам
Продолжительность промежутка : 42 мс. (1,00 видеокадр)
Время предзагрузки промежутка : 500 мс.
Скриншот c названием фильма Скриншоты
Скачать

Скачать торрент! Мастер Муши / Мастер Муси / Mushishi / Bugmaster / Mushi-Shi: The Movie (Кацухиро Отомо / Katsuhiro Ohtomo) [2006, Япония, фэнтези, HDRip] VO [Юки]

Как скачивать? · Что такое торрент? · Рейтинг и ограничения

Сайт не распространяет и не хранит электронные версии произведений, а лишь предоставляет доступ к создаваемому пользователями каталогу ссылок на торрент-файлы, которые содержат только списки хеш-сумм

[Профиль] [ЛС]
Показать сообщения:    
Ответить на тему

Текущее время: Сегодня 06:18

Часовой пояс: GMT + 4



Вы не можете начинать темы
Вы не можете отвечать на сообщения
Вы не можете редактировать свои сообщения
Вы не можете удалять свои сообщения
Вы не можете голосовать в опросах
Вы не можете прикреплять файлы к сообщениям
Вы не можете скачивать файлы