Всё и сразу (Роман Каримов) [2014, Россия, комедия, криминал, WEB-DLRip-AVC]

Ответить на тему
 
Автор Сообщение

user ®

Стаж: 7 лет 7 месяцев

Сообщений: 20008

Пост Пост: #1 от 06-Июл-2014 00:20

[Цитировать]

Всё и сразу- Страна: Россия
Жанр: комедия, криминал
Год выпуска: 2014
Продолжительность: 01:34:53-Перевод: Не требуется
Субтитры: нет
Режиссер: Роман Каримов
В ролях:
Никита Ост, Антон Шурцов, Александр Паль, Юлия Хлынина, Артем Костюнёв, Андрей Муравьёв, Александр Шаляпин, Андрей Галактионов, Игорь Тарасевич, Ольга Возовая-Описание: Тима и Дэн - друзья-неудачники из провинциального городка. Учеба позади, работать не тянет, девушек нет. На пути к мечте (выбиться в люди) и в надежде получить всё и сразу (без особого напряга) парни берутся выполнить задание местного бандюка и отправляются на дело, прихватив с собой автослесаря Жору, такого же полного лузера.
На кону внушительная сумма, главное - не облажаться и чётко инсценировать ограбление своего же, подставного наркокурьера. Но вот засада: роль курьера случайно достаётся честному дембелю Ване, который оказывается не в курсе схем и обещаний. И теперь в водовороте погонь, потасовок и перестрелок всем четверым нужно по-настоящему напрячься, чтобы грамотно разрулить ситуацию. И получить ВСЁ и СРАЗУ.- -Качество: WEB-DLRip-AVC | WEB-DL 720p | sample
Контейнер: MKV
Видео: AVC, 768x432 (16:9), 968 kbps, 24 fps, 0,122 bpp
Аудио: русский / MP3 / 2.0 / 48 kHz / 128 kbps / ||-Скриншоты Media Info
General
Unique ID : 215759084145218438449379457666671321518 (0xA251B026DAF207888ECC932DC36221AE)
Complete name : E:\my_rip\Vse.i.srazu.2014.WEB-DLRip-AVC.by.Дядя_Лёша.mkv
Format : Matroska
Format version : Version 4 / Version 2
File size : 744 MiB
Duration : 1h 34mn
Overall bit rate : 1 097 Kbps
Encoded date : UTC 2014-07-05 15:57:28
Writing application : mkvmerge v7.0.0 ('Where We Going') 32bit built on Jun 9 2014 15:08:34
Writing library : libebml v1.3.0 + libmatroska v1.4.1
DURATION : 01:34:53.208000000
NUMBER_OF_FRAMES : 237217
NUMBER_OF_BYTES : 91091328
_STATISTICS_WRITING_APP : mkvmerge v7.0.0 ('Where We Going') 32bit built on Jun 9 2014 15:08:34
_STATISTICS_WRITING_DATE_UTC : 2014-07-05 15:57:28
_STATISTICS_TAGS : BPS DURATION NUMBER_OF_FRAMES NUMBER_OF_BYTES
Attachment : Yes
Video
ID : 1
Format : AVC
Format/Info : Advanced Video Codec
Format profile : High@L4.1
Format settings, CABAC : Yes
Format settings, ReFrames : 8 frames
Codec ID : V_MPEG4/ISO/AVC
Duration : 1h 34mn
Bit rate : 968 Kbps
Width : 768 pixels
Height : 432 pixels
Display aspect ratio : 16:9
Frame rate : 24.000 fps
Color space : YUV
Chroma subsampling : 4:2:0
Bit depth : 8 bits
Scan type : Progressive
Bits/(Pixel*Frame) : 0.122
Stream size : 643 MiB (86%)
Writing library : x264 core 132 r2310 76a5c3a
Encoding settings : cabac=1 / ref=8 / deblock=1:-1:-2 / analyse=0x3:0x113 / me=umh / subme=11 / psy=1 / psy_rd=1.00:0.15 / mixed_ref=1 / me_range=32 / chroma_me=1 / trellis=2 / 8x8dct=1 / cqm=0 / deadzone=21,11 / fast_pskip=0 / chroma_qp_offset=-3 / threads=3 / lookahead_threads=1 / sliced_threads=0 / nr=0 / decimate=0 / interlaced=0 / bluray_compat=0 / constrained_intra=0 / bframes=5 / b_pyramid=2 / b_adapt=2 / b_bias=0 / direct=3 / weightb=1 / open_gop=0 / weightp=2 / keyint=240 / keyint_min=24 / scenecut=40 / intra_refresh=0 / rc_lookahead=60 / rc=2pass / mbtree=0 / bitrate=968 / ratetol=1.0 / qcomp=0.65 / qpmin=0 / qpmax=69 / qpstep=4 / cplxblur=20.0 / qblur=0.5 / vbv_maxrate=40000 / vbv_bufsize=30000 / nal_hrd=none / ip_ratio=1.40 / pb_ratio=1.30 / aq=1:0.80
Default : Yes
Forced : No
Audio
ID : 2
Format : MPEG Audio
Format version : Version 1
Format profile : Layer 3
Codec ID : A_MPEG/L3
Codec ID/Hint : MP3
Duration : 1h 34mn
Bit rate mode : Constant
Bit rate : 128 Kbps
Channel(s) : 2 channels
Sampling rate : 48.0 KHz
Compression mode : Lossy
Stream size : 86.9 MiB (12%)
Title : Russian
Writing library : LAME3.99r
Encoding settings : -m s -V 4 -q 2 -lowpass 17 -b 128
Language : Russian
Default : Yes
Forced : No
Скачать

Скачать торрент!

Как скачивать? · Что такое торрент? · Рейтинг и ограничения

Сайт не распространяет и не хранит электронные версии произведений, а лишь предоставляет доступ к создаваемому пользователями каталогу ссылок на торрент-файлы, которые содержат только списки хеш-сумм

[Профиль] [ЛС]
Показать сообщения:    
Ответить на тему

Текущее время: Сегодня 18:13

Часовой пояс: GMT + 4



Вы не можете начинать темы
Вы не можете отвечать на сообщения
Вы не можете редактировать свои сообщения
Вы не можете удалять свои сообщения
Вы не можете голосовать в опросах
Вы не можете прикреплять файлы к сообщениям
Вы не можете скачивать файлы