Всё и сразу (Роман Каримов) [2014 г., комедия, криминал, WEB DLRip-AVC]

Ответить на тему
 
Автор Сообщение

user ®

Стаж: 7 лет 7 месяцев

Сообщений: 20008

Пост Пост: #1 от 05-Июл-2014 15:40

[Цитировать]

Всё и сразу_____________________________________________________________________ Год выпуска: 2014
Производство: Россия
Жанр: комедия, криминал
Перевод: Не требуется
Субтитры: Отсутствуют
Продолжительность: 01:34:53
Режиссер: Роман Каримов
В ролях: Никита Ост, Антон Шурцов, Александр Паль, Юлия Хлынина, Артем Костюнёв, Андрей Муравьёв, Александр Шаляпин, Андрей Галактионов, Игорь Тарасевич, Ольга Возовая
Описание: Тима и Дэн — друзья-неудачники из провинциального городка. Учеба позади, работать не тянет, девушек нет. На пути к мечте (выбиться в люди) и в надежде получить всё и сразу (без особого напряга) парни берутся выполнить задание местного бандюка и отправляются на дело, прихватив с собой автослесаря Жору, такого же полного лузера.

Качество видео: WEB DLRip-AVC [сэмпл]
Контейнер: MKV
Видео: AVC at 1950 Кбит/сек, 1024 x 576 at 24.000 fps
Аудио: AC3, 384 kb/s, 6 каналов, 48 кгц

Скриншоты MediaInfo

Общее
Уникальный идентификатор : 250000241690433548667421845892317026377 (0xBC144B8F7239CA2A86BE457D328F9849)
Полное имя : C:\Users\User\Desktop\Vse.i.Srazu.2014.O.mkv
Формат : Matroska
Версия формата : Version 2
Размер файла : 1,55 Гбайт
Продолжительность : 1 ч. 34 м.
Общий поток : 2335 Кбит/сек
Дата кодирования : UTC 2014-07-05 02:59:44
Программа кодирования : mkvmerge v6.1.0 ('Old Devil') built on Mar 4 2013 09:10:42
Библиотека кодирования : libebml v1.3.0 + libmatroska v1.4.0
Видео
Идентификатор : 1
Формат : AVC
Формат/Информация : Advanced Video Codec
Профиль формата : High@L4.1
Параметр CABAC формата : Да
Параметр ReFrames формата : 8 кадров
Идентификатор кодека : V_MPEG4/ISO/AVC
Продолжительность : 1 ч. 34 м.
Битрейт : 1950 Кбит/сек
Ширина : 1024 пикселя
Высота : 576 пикселей
Соотношение сторон : 16:9
Режим частоты кадров : Постоянный
Частота кадров : 24,000 кадра/сек
Цветовое пространство : YUV
Субдискретизация насыщенности : 4:2:0
Битовая глубина : 8 бит
Тип развёртки : Прогрессивная
Бит/(Пиксели*Кадры) : 0.138
Размер потока : 1,26 Гбайт (82%)
Библиотека кодирования : x264 core 130 r2273 b3065e6
Настройки программы : cabac=1 / ref=8 / deblock=1:-1:-2 / analyse=0x3:0x133 / me=umh / subme=11 / psy=1 / psy_rd=1.00:0.10 / mixed_ref=1 / me_range=32 / chroma_me=1 / trellis=2 / 8x8dct=1 / cqm=0 / deadzone=21,11 / fast_pskip=0 / chroma_qp_offset=-3 / threads=6 / lookahead_threads=1 / sliced_threads=0 / nr=0 / decimate=1 / interlaced=0 / bluray_compat=0 / constrained_intra=0 / bframes=3 / b_pyramid=2 / b_adapt=2 / b_bias=0 / direct=3 / weightb=1 / open_gop=0 / weightp=2 / keyint=240 / keyint_min=23 / scenecut=40 / intra_refresh=0 / rc_lookahead=50 / rc=2pass / mbtree=1 / bitrate=1950 / ratetol=1.0 / qcomp=0.60 / qpmin=0 / qpmax=69 / qpstep=4 / cplxblur=20.0 / qblur=0.5 / ip_ratio=1.40 / aq=1:1.00
Default : Да
Forced : Нет
Аудио
Идентификатор : 2
Формат : AC-3
Формат/Информация : Audio Coding 3
Расширение режима : CM (complete main)
Параметр Endianness формата : Big
Идентификатор кодека : A_AC3
Продолжительность : 1 ч. 34 м.
Вид битрейта : Постоянный
Битрейт : 384 Кбит/сек
Каналы : 6 каналов
Расположение каналов : Front: L C R, Side: L R, LFE
Частота : 48,0 КГц
Битовая глубина : 16 бит
Метод сжатия : С потерями
Размер потока : 261 Мбайт (16%)
Default : Да
Forced : Нет
Rip by Tarkin
Скачать

Скачать торрент!

Как скачивать? · Что такое торрент? · Рейтинг и ограничения

Сайт не распространяет и не хранит электронные версии произведений, а лишь предоставляет доступ к создаваемому пользователями каталогу ссылок на торрент-файлы, которые содержат только списки хеш-сумм

[Профиль] [ЛС]
Показать сообщения:    
Ответить на тему

Текущее время: Сегодня 03:14

Часовой пояс: GMT + 4



Вы не можете начинать темы
Вы не можете отвечать на сообщения
Вы не можете редактировать свои сообщения
Вы не можете удалять свои сообщения
Вы не можете голосовать в опросах
Вы не можете прикреплять файлы к сообщениям
Вы не можете скачивать файлы