Годзилла, король монстров! / Godzilla, King of the Monsters! (Иcиро Хонда / Ishiro Honda, Терри О. Морс / Terry O. Morse) [1956, США, Япония, ужасы, фантастика, боевик, BDRip] AVO (Живов) + Original (Eng)

Ответить на тему
 
Автор Сообщение

user ®

Стаж: 11 лет

Сообщений: 15151

Пост Пост: #1 от 05-Июл-2014 12:30

[Цитировать]

--Годзилла, король монстров! / Godzilla, King of the Monsters!«Makes KING KONG look like a Midget!»-- Страна: США, Япония
Жанр: ужасы, фантастика, боевик
Год выхода: 1956
Продолжительность: 01:20:53
Перевод: авторский (Юрий Живов)
Субтитры: нет
Оригинальная аудиодорожка: английская
Режиссер: Иcиро Хонда / Ishiro Honda, Терри О. Морс / Terry O. Morse
В ролях: Рэймонд Бёрр, Такаси Симура, Момоко Кочи, Акира Такарада, Акихико Хирата, Сатио Сакаи, Фуюки Мураками, Рен Ямамото, Тоёаки Сузуки, Тадаси Окабэ
О фильме: Американский репортёр Стив Мартин, проездом оказавшийся в Токио, узнаёт о многочисленных случаях пропажи кораблей, большинство из которых исчезло у острова Одо. Решив провести собственное расследование, он отправляется туда и узнаёт о существовании гигантского агрессивного ящера, которого местные жители называют Годзиллой.
Дополнительно: Японский фильм «Годзилла» (1954), перемонтированный в 1956 году под американский прокат. Синхронизация аудио - Gellard.

Релиз от -
Автор: Gellard
Сэмпл: скачать
Качество: BDRip (источник: CHDBits / Blu-Ray Disk / 1080p)
Формат: AVI
Видео: 704x528 (1.33:1), 23.976 fps, XviD build 65 ~2163 kbps avg, 0.24 bit/pixel
Аудио #1: (AVO.JIVOV) 48 kHz, AC3 Dolby Digital, 2/0 (L,R) ch, 192.00 kbps avg
Аудио #2: (ENG) 48 kHz, AC3 Dolby Digital, 1/0 (C) ch, 192.00 kbps avg
Формат субтитров: softsub (SRT)-
-
Скриншоты
Скриншоты сравнения
[url=http://***/forum/viewtopic.php?t=282843]http://***/forum/viewtopic.php?t=282843[/url]
http://screenshotcomparison.com/comparison/82174
Скриншот с названием
MediaInfo
General
Complete name                            : Godzilla.korol.monstrov.1956.DUAL.BDRip.XviD.AC3.-HQCLUB.avi
Format                                   : AVI
Format/Info                              : Audio Video Interleave
File size                                : 1.45 GiB
Duration                                 : 1h 20mn
Overall bit rate                         : 2 563 Kbps
Movie name                               : Годзилла, король монстров! / Godzilla, King of the Monsters! (1956) BDRip
Director                                 : Gellard
Genre                                    : ужасы, фантастика, боевик
Writing application                      : VirtualDubMod 1.5.10.2 (build 2542/release)
Copyright                                : HQCLUB
Comment                                  : 04.07.2014
Video
ID                                       : 0
Format                                   : MPEG-4 Visual
Format profile                           : Advanced Simple@L5
Format settings, BVOP                    : 1
Format settings, QPel                    : No
Format settings, GMC                     : No warppoints
Format settings, Matrix                  : Custom
Codec ID                                 : XVID
Codec ID/Hint                            : XviD
Duration                                 : 1h 20mn
Bit rate                                 : 2 164 Kbps
Width                                    : 704 pixels
Height                                   : 528 pixels
Display aspect ratio                     : 4:3
Frame rate                               : 23.976 fps
Color space                              : YUV
Chroma subsampling                       : 4:2:0
Bit depth                                : 8 bits
Scan type                                : Progressive
Compression mode                         : Lossy
Bits/(Pixel*Frame)                       : 0.243
Stream size                              : 1.22 GiB (84%)
Writing library                          : XviD 65
Audio #1
ID                                       : 1
Format                                   : AC-3
Format/Info                              : Audio Coding 3
Mode extension                           : CM (complete main)
Format settings, Endianness              : Big
Codec ID                                 : 2000
Duration                                 : 1h 20mn
Bit rate mode                            : Constant
Bit rate                                 : 192 Kbps
Channel count                            : 2 channels
Channel positions                        : Front: L R
Sampling rate                            : 48.0 KHz
Bit depth                                : 16 bits
Compression mode                         : Lossy
Stream size                              : 111 MiB (7%)
Alignment                                : Split accross interleaves
Interleave, duration                     : 42 ms (1.00 video frame)
Interleave, preload duration             : 500 ms
Audio #2
ID                                       : 2
Format                                   : AC-3
Format/Info                              : Audio Coding 3
Mode extension                           : CM (complete main)
Format settings, Endianness              : Big
Codec ID                                 : 2000
Duration                                 : 1h 20mn
Bit rate mode                            : Constant
Bit rate                                 : 192 Kbps
Channel count                            : 1 channel
Channel positions                        : Front: C
Sampling rate                            : 48.0 KHz
Bit depth                                : 16 bits
Compression mode                         : Lossy
Stream size                              : 111 MiB (7%)
Alignment                                : Split accross interleaves
Interleave, duration                     : 42 ms (1.00 video frame)
Interleave, preload duration             : 500 ms
Скачать

Скачать торрент! Годзилла, король монстров! / Godzilla, King of the Monsters! (Иcиро Хонда / Ishiro Honda, Терри О. Морс / Terry O. Morse) [1956, США, Япония, ужасы, фантастика, боевик, BDRip] AVO (Живов) + Original (Eng)

Как скачивать? · Что такое торрент? · Рейтинг и ограничения

Сайт не распространяет и не хранит электронные версии произведений, а лишь предоставляет доступ к создаваемому пользователями каталогу ссылок на торрент-файлы, которые содержат только списки хеш-сумм

[Профиль] [ЛС]
Показать сообщения:    
Ответить на тему

Текущее время: Сегодня 16:06

Часовой пояс: GMT + 4



Вы не можете начинать темы
Вы не можете отвечать на сообщения
Вы не можете редактировать свои сообщения
Вы не можете удалять свои сообщения
Вы не можете голосовать в опросах
Вы не можете прикреплять файлы к сообщениям
Вы не можете скачивать файлы