Мастер Муши / Мастер Муси / Mushishi / Bugmaster / Mushi-Shi: The Movie (Кацухиро Отомо / Katsuhiro Ohtomo) [2006, Япония, фэнтези, HDRip] VO [Юки] + original Jap + Sub (rus, eng)

Ответить на тему
 
Автор Сообщение

user ®

Стаж: 11 лет

Сообщений: 15151

Пост Пост: #1 от 05-Июл-2014 12:30

[Цитировать]

Мастер Муши / Мастер Муси / Mushishi / Bugmaster / Mushi-Shi: The Movie- -Страна: Япония
Жанр: фэнтези
Год выпуска: 2006
Продолжительность: 02:11:02-Перевод: Одноголосый закадровый [Юки]
Cубтитры: русские [ASS], английские [SRT] [отдельно]
Оригинальная аудиодорожка: японский
Режиссер: Кацухиро Отомо / Katsuhiro Ohtomo
В ролях: Дзё Одагири, Нао Омори, Аои Ю, Лили, Макико Куно, Рэйа Морияма, Хидеюки Инада, Макико Есуми, Ро Нарусэ, Нумата Баку...
Описание: «Муши» — это не жуки, не насекомые и даже не микробы. Муши — это совершенно иная форма жизни. Их существование скрыто от большинства людей, и лишь некоторые знают, что они есть на свете. Гинко — «Повелитель Муши», странствующий по миру и пытающийся узнать об этих существах побольше. Заодно он помогает людям, которые попали в беду из-за чего-нибудь сверхъестественного.
Релиз от -
Сэмпл: http://multi-up.com/984325
Качество видео: HDRip
Формат видео: AVI
Видео: MPEG-4 Visual at 1740 Кбит/сек; 704 x 384 (1.833) at 23.976 fps
Аудио: AC-3 at 192 Кбит/сек; 2 канала, 48,0 КГц
Аудио: AC-3 at 448 Кбит/сек; 6 каналов, 48,0 КГц
Автор -
MediaInfo
Общее
Полное имя : D:\Фильмы\Азиатские\Мастер Муши\Mushishi.2006.HDRip.XviD.2200MB. rip by [Assassin's Creed]\Mushishi.2006.HDRip.XviD.2200MB. rip by [Assassin's Creed].avi
Формат : AVI
Формат/Информация : Audio Video Interleave
Профиль формата : OpenDML
Размер файла : 2,20 Гбайт
Продолжительность : 2 ч. 11 м.
Общий поток : 2398 Кбит/сек
Программа кодирования : VirtualDubMod 1.5.10.2 (build 2540/release)
Библиотека кодирования : VirtualDubMod build 2540/release
Видео
Идентификатор : 0
Формат : MPEG-4 Visual
Профиль формата : Advanced Simple@L5
Параметр BVOP формата : 1
Параметр QPel формата : Нет
Параметр GMC формата : Без точки перехода
Параметр матрицы формата : Default (H.263)
Идентификатор кодека : XVID
Идентификатор кодека/Подсказка : XviD
Продолжительность : 2 ч. 11 м.
Битрейт : 1740 Кбит/сек
Ширина : 704 пикселя
Высота : 384 пикселя
Соотношение сторон : 1,85:1
Частота кадров : 23,976 кадра/сек
Цветовое пространство : YUV
Субдискретизация насыщенности : 4:2:0
Битовая глубина : 8 бит
Тип развёртки : Прогрессивная
Метод сжатия : С потерями
Бит/(Пиксели*Кадры) : 0.269
Размер потока : 1,59 Гбайт (73%)
Библиотека кодирования : XviD 1.2.1 (UTC 2008-12-04)
Аудио #1
Идентификатор : 1
Формат : AC-3
Формат/Информация : Audio Coding 3
Расширение режима : CM (complete main)
Параметр Endianness формата : Big
Идентификатор кодека : 2000
Продолжительность : 2 ч. 11 м.
Вид битрейта : Постоянный
Битрейт : 192 Кбит/сек
Каналы : 2 канала
Расположение каналов : Front: L R
Частота : 48,0 КГц
Битовая глубина : 16 бит
Метод сжатия : С потерями
Размер потока : 180 Мбайт (8%)
Выравнивание : Разделение по промежуткам
Продолжительность промежутка : 42 мс. (1,00 видеокадр)
Время предзагрузки промежутка : 500 мс.
Аудио #2
Идентификатор : 2
Формат : AC-3
Формат/Информация : Audio Coding 3
Расширение режима : CM (complete main)
Параметр Endianness формата : Big
Идентификатор кодека : 2000
Продолжительность : 2 ч. 11 м.
Вид битрейта : Постоянный
Битрейт : 448 Кбит/сек
Каналы : 6 каналов
Расположение каналов : Front: L C R, Side: L R, LFE
Частота : 48,0 КГц
Битовая глубина : 16 бит
Метод сжатия : С потерями
Размер потока : 420 Мбайт (19%)
Выравнивание : Разделение по промежуткам
Продолжительность промежутка : 42 мс. (1,00 видеокадр)
Время предзагрузки промежутка : 500 мс.
Общее
Полное имя : D:\Фильмы\Азиатские\Мастер Муши\Mushishi.2006.HDRip.XviD.2200MB. rip by [Assassin's Creed]\Mushishi.2006.HDRip.XviD.2200MB. rip by [Assassin's Creed].eng.srt
Формат : SubRip
Размер файла : 59,1 Кбайт
Текст
Формат : SubRip
Метод сжатия : Без потерь
Общее
Полное имя : D:\Фильмы\Азиатские\Мастер Муши\Mushishi.2006.HDRip.XviD.2200MB. rip by [Assassin's Creed]\Mushishi.2006.HDRip.XviD.2200MB. rip by [Assassin's Creed].rus.ass
Размер файла : 88,6 Кбайт
Скриншот c названием фильма Скриншоты
Скачать

Скачать торрент! Мастер Муши / Мастер Муси / Mushishi / Bugmaster / Mushi-Shi: The Movie (Кацухиро Отомо / Katsuhiro Ohtomo) [2006, Япония, фэнтези, HDRip] VO [Юки] + original Jap + Sub (rus, eng)

Как скачивать? · Что такое торрент? · Рейтинг и ограничения

Сайт не распространяет и не хранит электронные версии произведений, а лишь предоставляет доступ к создаваемому пользователями каталогу ссылок на торрент-файлы, которые содержат только списки хеш-сумм

[Профиль] [ЛС]
Показать сообщения:    
Ответить на тему

Текущее время: Сегодня 19:37

Часовой пояс: GMT + 4



Вы не можете начинать темы
Вы не можете отвечать на сообщения
Вы не можете редактировать свои сообщения
Вы не можете удалять свои сообщения
Вы не можете голосовать в опросах
Вы не можете прикреплять файлы к сообщениям
Вы не можете скачивать файлы