Друзья / The Friends (Синдзи Сомаи / Shinji Somai) [1994, Япония, Драма, DVDRip] VO D.I.M.

Ответить на тему
 
Автор Сообщение

user ®

Стаж: 11 лет

Сообщений: 15151

Пост Пост: #1 от 04-Июл-2014 21:30

[Цитировать]

Друзья / The Friends
Страна: Япония
Жанр: Драма
Год выпуска: 1994
Продолжительность: 1:53:16
Перевод: Одноголосый закадровый D.I.M.
Cубтитры: нет
Режиссер: Синдзи Сомаи / Shinji Somai
В ролях: Рентаро Микуни / Rentaro Mikuni
Тикаге Авасима / Chikage Awashima
Акира Эмото / Akira Emoto
Наоки Саката / Naoki Sakata
Сигеру Ядзаки / Shigeru Yazaki
Описание: Это рассказ о трёх друзьях,
которые начинают подсматривать за одиноким стариком,
потому что один из них услышал от своей матери, что тот скоро помрёт.
Но постепенно они сближаются со стариком и узнают его тайну,
которая отравляла ему всю жизнь...
Это девяносто восьмой фильм с моим переводом и озвучкой,
выложенный здесь.
Сэмпл: http://multi-up.com/984215
Качество видео: DVDRip
Формат видео: AVI
Видео: 624*368 (1,696), 23,976 fps, MPEG-4 Visual (XviD) ~ 1593 kbps avg, 0.289 bit/pixel
Аудио: MPEG Audio Layer 3, 48000Hz, stereo, 128kbps
MediaInfo
Общее
Полное имя : E:\TORENT\РАЗДАЧИ (РИПЫ)\The Friends.avi
Формат : AVI
Формат/Информация : Audio Video Interleave
Размер файла : 1,37 Гбайт
Продолжительность : 1 ч. 53 м.
Общий поток : 1730 Кбит/сек
Программа кодирования : VirtualDubModRus 1.5.10.2 (build 2542/release)
Библиотека кодирования : VirtualDubMod build 2542/release
Видео
Идентификатор : 0
Формат : MPEG-4 Visual
Профиль формата : Advanced Simple@L5
Параметр BVOP формата : 1
Параметр QPel формата : Нет
Параметр GMC формата : Без точки перехода
Параметр матрицы формата : Выборочная
Идентификатор кодека : XVID
Идентификатор кодека/Подсказка : XviD
Продолжительность : 1 ч. 53 м.
Битрейт : 1593 Кбит/сек
Ширина : 624 пикс.
Высота : 368 пикс.
Соотношение сторон : 1,696
Частота кадров : 23,976 кадр/сек
Цветовое пространство : YUV
Подвыборка цветности : 4:2:0
Битовая глубина : 8 бит
Тип развёртки : Прогрессивная
Метод сжатия : С потерями
Бит/(Пиксели*Кадры) : 0.289
Размер потока : 1,26 Гбайт (92%)
Библиотека кодирования : XviD 63
Аудио
Идентификатор : 1
Формат : MPEG Audio
Версия формата : Version 1
Профиль формата : Layer 3
Режим : Joint stereo
Расширение режима : MS Stereo
Идентификатор кодека : 55
Идентификатор кодека/Подсказка : MP3
Продолжительность : 1 ч. 53 м.
Вид битрейта : Постоянный
Битрейт : 128 Кбит/сек
Канал(ы) : 2 канала(ов)
Частота : 48,0 КГц
Метод сжатия : С потерями
Размер потока : 104 Мбайт (7%)
Выравнивание : Соединение по промежуткам
Продолжительность промежутка : 42 мс. (1,00 видеокадр)
Время предзагрузки промежутка : 504 ms
Язык : Russian
Скриншот c названием фильма Скриншоты
Скачать

Скачать торрент! Друзья / The Friends (Синдзи Сомаи / Shinji Somai) [1994, Япония, Драма, DVDRip] VO D.I.M.

Как скачивать? · Что такое торрент? · Рейтинг и ограничения

Сайт не распространяет и не хранит электронные версии произведений, а лишь предоставляет доступ к создаваемому пользователями каталогу ссылок на торрент-файлы, которые содержат только списки хеш-сумм

[Профиль] [ЛС]
Показать сообщения:    
Ответить на тему

Текущее время: Сегодня 21:50

Часовой пояс: GMT + 4



Вы не можете начинать темы
Вы не можете отвечать на сообщения
Вы не можете редактировать свои сообщения
Вы не можете удалять свои сообщения
Вы не можете голосовать в опросах
Вы не можете прикреплять файлы к сообщениям
Вы не можете скачивать файлы