Годзилла / Godzilla / Gojira (Иширо Хонда / Ishiro Honda) [1954 г., Япония, ужасы, фантастика, триллер, драма, BDRip] VO + Original (Jap) + Subs (Rus, Eng)

Ответить на тему
 
Автор Сообщение

user ®

Стаж: 11 лет

Сообщений: 15151

Пост Пост: #1 от 04-Июл-2014 21:30

[Цитировать]

--Годзилла / Gojira«The legend begins...»-- Страна: Япония
Жанр: ужасы, фантастика, триллер, драма
Год выхода: 1954
Продолжительность: 01:36:29
Перевод: любительский (одноголосый, закадровый)
Субтитры: русские (Gellard), английские (2 вида)
Оригинальная аудиодорожка: японская
Режиссер: Иширо Хонда
В ролях: Акира Такарада, Момоко Кочи, Акихико Хирата, Такаси Симура, Фуюки Мураками, Сатио Сакаи, Тораноскэ Огава, Рен Ямамото, Хироши Хаяси, Такэо Оёкава
О фильме: В океане начинают пропадать японские корабли. От них остаются только оборванные радиограммы, сообщающие о столбах пламени, рвущихся из океана. Вскоре причина этих инцидентов всплывает наружу. Точнее, выходит на своих лапах. Это 50-метровый древний ящер, разбуженный испытаниями в океане американского ядерного оружия. Он начинает уничтожать все на своем пути и теперь опасность грозит не только Японии, но и всему миру…

Релиз от -
Автор: Gellard
Сэмпл: скачать
Качество: BDRip (источник: CHDBits / Blu-Ray Disk / 1080p)
Формат: AVI
Видео: 704x512 (1.38:1), 23.976 fps, XviD build 65 ~1752 kbps avg, 0.20 bit/pixel
Аудио #1: (VO) 48 kHz, AC3 Dolby Digital, 2/0 (L,R) ch, 192.00 kbps avg
Аудио #2: (JAP) 48 kHz, AC3 Dolby Digital, 1/0 (C) ch, 192.00 kbps avg
Формат субтитров: softsub (SRT)-
-
Скриншоты
Скриншоты сравнения Скриншот с названием
MediaInfo
General
Complete name                            : Godzilla.1954.DUAL.BDRip.XviD.AC3.-HQCLUB.avi
Format                                   : AVI
Format/Info                              : Audio Video Interleave
File size                                : 1.45 GiB
Duration                                 : 1h 36mn
Overall bit rate                         : 2 152 Kbps
Movie name                               : Годзилла / Godzilla / Gojira (1954) BDRip
Director                                 : Gellard
Genre                                    : ужасы, фантастика, триллер
Writing application                      : VirtualDubMod 1.5.10.2 (build 2542/release)
Copyright                                : HQCLUB
Comment                                  : 02.07.2014
Video
ID                                       : 0
Format                                   : MPEG-4 Visual
Format profile                           : Advanced Simple@L5
Format settings, BVOP                    : 1
Format settings, QPel                    : No
Format settings, GMC                     : No warppoints
Format settings, Matrix                  : Custom
Codec ID                                 : XVID
Codec ID/Hint                            : XviD
Duration                                 : 1h 36mn
Bit rate                                 : 1 753 Kbps
Width                                    : 704 pixels
Height                                   : 512 pixels
Display aspect ratio                     : 1.375
Frame rate                               : 23.976 fps
Color space                              : YUV
Chroma subsampling                       : 4:2:0
Bit depth                                : 8 bits
Scan type                                : Progressive
Compression mode                         : Lossy
Bits/(Pixel*Frame)                       : 0.203
Stream size                              : 1.18 GiB (81%)
Writing library                          : XviD 65
Audio #1
ID                                       : 1
Format                                   : AC-3
Format/Info                              : Audio Coding 3
Mode extension                           : CM (complete main)
Format settings, Endianness              : Big
Codec ID                                 : 2000
Duration                                 : 1h 36mn
Bit rate mode                            : Constant
Bit rate                                 : 192 Kbps
Channel count                            : 2 channels
Channel positions                        : Front: L R
Sampling rate                            : 48.0 KHz
Bit depth                                : 16 bits
Compression mode                         : Lossy
Stream size                              : 132 MiB (9%)
Alignment                                : Split accross interleaves
Interleave, duration                     : 42 ms (1.00 video frame)
Interleave, preload duration             : 500 ms
Audio #2
ID                                       : 2
Format                                   : AC-3
Format/Info                              : Audio Coding 3
Mode extension                           : CM (complete main)
Format settings, Endianness              : Big
Codec ID                                 : 2000
Duration                                 : 1h 36mn
Bit rate mode                            : Constant
Bit rate                                 : 192 Kbps
Channel count                            : 1 channel
Channel positions                        : Front: C
Sampling rate                            : 48.0 KHz
Bit depth                                : 16 bits
Compression mode                         : Lossy
Stream size                              : 133 MiB (9%)
Alignment                                : Split accross interleaves
Interleave, duration                     : 42 ms (1.00 video frame)
Interleave, preload duration             : 500 ms
Скачать

Скачать торрент! Годзилла / Godzilla / Gojira (Иширо Хонда / Ishiro Honda) [1954 г., Япония, ужасы, фантастика, триллер, драма, BDRip] VO + Original (Jap) + Subs (Rus, Eng)

Как скачивать? · Что такое торрент? · Рейтинг и ограничения

Сайт не распространяет и не хранит электронные версии произведений, а лишь предоставляет доступ к создаваемому пользователями каталогу ссылок на торрент-файлы, которые содержат только списки хеш-сумм

[Профиль] [ЛС]
Показать сообщения:    
Ответить на тему

Текущее время: Сегодня 14:25

Часовой пояс: GMT + 4



Вы не можете начинать темы
Вы не можете отвечать на сообщения
Вы не можете редактировать свои сообщения
Вы не можете удалять свои сообщения
Вы не можете голосовать в опросах
Вы не можете прикреплять файлы к сообщениям
Вы не можете скачивать файлы