WTF! Какого черта? / N\'importe qui (Рафаэль Фридман / Rafael Fridman) [2014 г., Франция, комедия, TeleSynch] Dub

Ответить на тему
 
Автор Сообщение

user ®

Стаж: 7 лет 7 месяцев

Сообщений: 20008

Пост Пост: #1 от 04-Июл-2014 21:30

[Цитировать]

WTF! Какого черта?N'importe qui_____________________________________________________________________ Год выпуска: 2014
Производство: Франция
Жанр: комедия
Перевод: Профессиональный (полное дублирование)
Субтитры: Отсутствуют
Оригинальная дорожка: Отсутствует
Продолжительность: 01:14:52
Режиссер: Рафаэль Фридман
В ролях: Реми Гайяр, Патрик Рейналь, Франк Брунэо, Элбан Иванофф, Николь Феррони, Сильвен Катан, Бриджитт Моати
Описание: Реми Гайяр — реальный персонаж Всемирной сети, троллер, провокатор, самый популярный комик инета Европы. Полтора миллиарда просмотров и миллионы фанатов. Пришел день, и он решил остепениться: женился, устроился на работу на автостоянке, пообещал беременной жене, что тоже «уходит в декрет» и бросает свои шалости.


Релиз группы:

Качество видео: TeleSynch [сэмпл]
Видеокодек: XviD
Аудиокодек: MP3
Видео: 720x400 (1.80:1), 29.970 fps, XviD build 50, 2411 kbps avg, 0.28 bit/pixel
Аудио: 44.100 kHz, MPEG Layer 3, 2 ch, 192.00 kbps avg

Скриншоты MediaInfo

Общее
Полное имя : D:\WTF.Kakogo.hera.2014.D.TS.avi
Формат : AVI
Формат/Информация : Audio Video Interleave
Размер файла : 1,37 Гбайт
Продолжительность : 1 ч. 14 м.
Общий поток : 2615 Кбит/сек
Название фильма : WTF.Kakogo.hera.2014.D.TS.ELEKTRI4KA
Режиссёр : ELEKTRI4KA
Жанр : Comedy
Программа кодирования : VirtualDubMod 1.5.10.3 | www.virtualdub-fr.org || (build 2550/release)
Формат оригинала/Имя : Movie
Правообладатель : uniongang.tv
Видео
Идентификатор : 0
Формат : MPEG-4 Visual
Профиль формата : Advanced Simple@L5
Параметр BVOP формата : 2
Параметр QPel формата : Нет
Параметр GMC формата : Без точки перехода
Параметр матрицы формата : Выборочная
Идентификатор кодека : XVID
Идентификатор кодека/Подсказка : XviD
Продолжительность : 1 ч. 14 м.
Битрейт : 2411 Кбит/сек
Ширина : 720 пикселей
Высота : 400 пикселей
Соотношение сторон : 16:9
Частота кадров : 29,970 кадров/сек
Цветовое пространство : YUV
Субдискретизация насыщенности : 4:2:0
Битовая глубина : 8 бит
Тип развёртки : Прогрессивная
Метод сжатия : С потерями
Бит/(Пиксели*Кадры) : 0.279
Размер потока : 1,26 Гбайт (92%)
Библиотека кодирования : XviD 1.2.1 (UTC 2008-12-04)
Аудио
Идентификатор : 1
Формат : MPEG Audio
Версия формата : Version 1
Профиль формата : Layer 3
Идентификатор кодека : 55
Идентификатор кодека/Подсказка : MP3
Продолжительность : 1 ч. 14 м.
Вид битрейта : Постоянный
Битрейт : 192 Кбит/сек
Каналы : 2 канала
Частота : 44,1 КГц
Метод сжатия : С потерями
Размер потока : 103 Мбайт (7%)
Выравнивание : Разделение по промежуткам
Продолжительность промежутка : 33 мс. (1,00 видеокадр)
Время предзагрузки промежутка : 500 мс.
Библиотека кодирования : LAME3.99r
Настройки программы : -m s -V 4 -q 2 -lowpass 18.6 -b 192
Скачать

Скачать торрент!

Как скачивать? · Что такое торрент? · Рейтинг и ограничения

Сайт не распространяет и не хранит электронные версии произведений, а лишь предоставляет доступ к создаваемому пользователями каталогу ссылок на торрент-файлы, которые содержат только списки хеш-сумм

[Профиль] [ЛС]
Показать сообщения:    
Ответить на тему

Текущее время: Сегодня 02:14

Часовой пояс: GMT + 4



Вы не можете начинать темы
Вы не можете отвечать на сообщения
Вы не можете редактировать свои сообщения
Вы не можете удалять свои сообщения
Вы не можете голосовать в опросах
Вы не можете прикреплять файлы к сообщениям
Вы не можете скачивать файлы