Школьный дебют / High School Debut / Koko Debyu (Цутому Ханабуса / Tsutomu Hanabusa) [2011, Япония, комедия, романтика, HDRip] VO (aleksei80) + Sub Rus + Sub Eng + Original Jap

Ответить на тему
 
Автор Сообщение

user ®

Стаж: 11 лет

Сообщений: 15151

Пост Пост: #1 от 03-Июл-2014 20:55

[Цитировать]

Школьный дебют / High School Debut / Koko Debyu
Страна: Япония
Студия: Asmik Ace Entertainment, Hakuhodo DY Media Partners, Hakuhodo
Жанр: комедия, романтика
Год выпуска: 2011
Продолжительность: 01:32:47
Перевод: Одноголосый закадровый aleksei80
Cубтитры: русские, английские
Оригинальная аудиодорожка: японский
Режиссер: Цутому Ханабуса / Tsutomu Hanabusa
В ролях: Мидзобата Джунпей, Оно Ито, Айдзава Рина, Фурукава Юки, Суда Масаки, Окамото Рэй
Описание: Днем полностью выкладываться на тренировке по софтболу, а вечером читать сёдзё мангу. Такой образ жизни вела Харуна Нагашима пока не перешла в старшую школу. Но мечта стать красивой и найти себе парня не оставила ее. Она старалась узнать секрет привлекательности, читая журналы, покупая одежду, Но, в итоге результат всегда оказывался плачевным, до тех пор, пока Харуна встретила Йо Комияма. Как и в софтболе, в изучении моды ей потребуется тренер. Харуна попросила парня стать ее тренером, но… проблема в том, что он ненавидит девушек. Что же делать?
II Сэмпл II IMDB II
Релиз группа:
Качество видео: HDRip
Формат видео: AVI
Видео: Xvid 720x400 (16:9) 23.976fps Bit rate 1608Kbps b/p 0.233
Аудио 1: AC3 48.0 KHz 2ch. 192kbps rus vo
Аудио 2: AC3 48.0 KHz 6ch. 448kbps jap
Формат субтитров: softsub (SRT)
MediaInfo
Общее
Полное имя : E:\torrent\High School Debut\High.School.Debut.2011.HDRip.avi
Формат : AVI
Формат/Информация : Audio Video Interleave
Размер файла : 1,47 Гбайт
Продолжительность : 1 ч. 32 м.
Общий поток : 2262 Кбит/сек
Программа кодирования : VirtualDubMod 1.5.10.3 (build 2550/release)
Библиотека кодирования : VirtualDubMod build 2550/release
Видео
Идентификатор : 0
Формат : MPEG-4 Visual
Профиль формата : Advanced Simple@L5
Параметр BVOP формата : 2
Параметр QPel формата : Нет
Параметр GMC формата : Без точки перехода
Параметр матрицы формата : Default (H.263)
Идентификатор кодека : XVID
Идентификатор кодека/Подсказка : XviD
Продолжительность : 1 ч. 32 м.
Битрейт : 1608 Кбит/сек
Ширина : 720 пикселей
Высота : 400 пикселей
Соотношение сторон : 16:9
Частота кадров : 23,976 кадра/сек
Цветовое пространство : YUV
Субдискретизация насыщенности : 4:2:0
Битовая глубина : 8 бит
Тип развёртки : Прогрессивная
Метод сжатия : С потерями
Бит/(Пиксели*Кадры) : 0.233
Размер потока : 1,04 Гбайт (71%)
Библиотека кодирования : XviD 1.2.1 (UTC 2008-12-04)
Аудио #1
Идентификатор : 1
Формат : AC-3
Формат/Информация : Audio Coding 3
Расширение режима : CM (complete main)
Параметр Endianness формата : Big
Идентификатор кодека : 2000
Продолжительность : 1 ч. 32 м.
Вид битрейта : Постоянный
Битрейт : 192 Кбит/сек
Каналы : 2 канала
Расположение каналов : Front: L R
Частота : 48,0 КГц
Битовая глубина : 16 бит
Метод сжатия : С потерями
Размер потока : 127 Мбайт (8%)
Выравнивание : Разделение по промежуткам
Продолжительность промежутка : 42 мс. (1,00 видеокадр)
Время предзагрузки промежутка : 500 мс.
Аудио #2
Идентификатор : 2
Формат : AC-3
Формат/Информация : Audio Coding 3
Расширение режима : CM (complete main)
Параметр Endianness формата : Big
Идентификатор кодека : 2000
Продолжительность : 1 ч. 32 м.
Вид битрейта : Постоянный
Битрейт : 448 Кбит/сек
Каналы : 6 каналов
Расположение каналов : Front: L C R, Side: L R, LFE
Частота : 48,0 КГц
Битовая глубина : 16 бит
Метод сжатия : С потерями
Размер потока : 297 Мбайт (20%)
Выравнивание : Разделение по промежуткам
Продолжительность промежутка : 42 мс. (1,00 видеокадр)
Время предзагрузки промежутка : 500 мс.
Скриншот c названием фильма Скриншоты
Скачать

Скачать торрент! Школьный дебют / High School Debut / Koko Debyu (Цутому Ханабуса / Tsutomu Hanabusa) [2011, Япония, комедия, романтика, HDRip] VO (aleksei80) + Sub Rus + Sub Eng + Original Jap

Как скачивать? · Что такое торрент? · Рейтинг и ограничения

Сайт не распространяет и не хранит электронные версии произведений, а лишь предоставляет доступ к создаваемому пользователями каталогу ссылок на торрент-файлы, которые содержат только списки хеш-сумм

[Профиль] [ЛС]
Показать сообщения:    
Ответить на тему

Текущее время: Сегодня 18:05

Часовой пояс: GMT + 4



Вы не можете начинать темы
Вы не можете отвечать на сообщения
Вы не можете редактировать свои сообщения
Вы не можете удалять свои сообщения
Вы не можете голосовать в опросах
Вы не можете прикреплять файлы к сообщениям
Вы не можете скачивать файлы