Небраска / Nebraska (Александр Пэйн / Alexander Payne) [2013, США, драма, приключения, BDRip 720p] VO (Матвеев) + Sub (Rus, Eng) + Original Eng

Ответить на тему
 
Автор Сообщение

user ®

Стаж: 7 лет 7 месяцев

Сообщений: 20008

Пост Пост: #1 от 03-Июл-2014 17:45

[Цитировать]

Небраска / Nebraska
Страна: США
Студия: Paramount Vantage, FilmNation Entertainment, Blue Lake Media Fund
Жанр: драма, приключения
Год выпуска: 2013
Продолжительность: 01:54:44
Перевод: Одноголосый закадровый - А. Матвеев
Cубтитры: Russian (А. Матвеев), Russian (Andreas), English, English (SDH)
Оригинальная аудиодорожка: английский
Режиссер: Александр Пэйн / Alexander Payne
В ролях: Брюс Дерн, Уилл Форте, Джун Скуиб, Боб Оденкёрк, Стейси Кич, Мэри Луиза Уилсон, Рэнс Ховард, Тим Дрисколл, Девин Рэтрей, Анджела МакЭван
Описание: Рассказ пойдет про отца-алкоголика, который выиграл миллион долларов. Он не хочет отправляться сам в долгий путь из Монтаны в Небраску, чтобы забрать свой выигрыш. Его сын, которому далеко за двадцать, не верит, что билет выигрышный, но все равно решает отправиться вместе с отцом, чтобы уберечь его от опасностей и всяких неприятностей, а также сблизиться за время путешествия.
Релиз: delia

Рип от SbR
Сэмпл: http://multi-up.com/982432
Тип релиза: BDRip 720p
Контейнер: MKV
Видео: 1280x534 at 23.976 fps,x264@L4.1,, ~8362 kbps avg
Аудио Rus: 48 kHz/24-bit, DTS 3.0, ~1509 kbps avg |Одноголосый закадровый, А. Матвеев|
Аудио Eng: 48 kHz/24-bit, DTS 3.0, ~1509 kbps avg
Информация о релизе
Перевод Алексея Матвеева доступен благодаря пользователю Переулка Переводмана - будулайроманов. Работа со звуком Переводман
MediaInfo
General
Unique ID : 172106681096549860127686218681416497291 (0x817A8A83E918B3BA921D5D92B92D388B)
Complete name : D:\Видео\Movies\Nebraska.2013.Rus.Eng.HDCUB-SbR.mkv
Format : Matroska
Format version : Version 4 / Version 2
File size : 9.14 GiB
Duration : 1h 54mn
Overall bit rate : 11.4 Mbps
Encoded date : UTC 2014-06-23 07:48:41
Writing application : mkvmerge v7.0.0 ('Where We Going') 64bit built on Jun 9 2014 15:16:27
Writing library : libebml v1.3.0 + libmatroska v1.4.1
DURATION : 01:47:43.231000000
NUMBER_OF_FRAMES : 1570
NUMBER_OF_BYTES : 44828
_STATISTICS_WRITING_APP : mkvmerge v7.0.0 ('Where We Going') 64bit built on Jun 9 2014 15:16:27
_STATISTICS_WRITING_DATE_UTC : 2014-06-23 07:48:41
_STATISTICS_TAGS : BPS DURATION NUMBER_OF_FRAMES NUMBER_OF_BYTES
Video
ID : 1
Format : AVC
Format/Info : Advanced Video Codec
Format profile : High@L4.1
Format settings, CABAC : Yes
Format settings, ReFrames : 12 frames
Codec ID : V_MPEG4/ISO/AVC
Duration : 1h 54mn
Bit rate : 8 159 Kbps
Width : 1 280 pixels
Height : 534 pixels
Display aspect ratio : 2.40:1
Frame rate mode : Constant
Frame rate : 23.976 fps
Color space : YUV
Chroma subsampling : 4:2:0
Bit depth : 8 bits
Scan type : Progressive
Bits/(Pixel*Frame) : 0.498
Stream size : 6.54 GiB (72%)
Writing library : x264 core 142 r2431kMod ac76440
Encoding settings : cabac=1 / ref=12 / deblock=1:-3:-3 / analyse=0x3:0x133 / me=esa / subme=11 / psy=1 / fade_compensate=0.00 / psy_rd=1.07:0.05 / mixed_ref=1 / me_range=24 / chroma_me=1 / trellis=2 / 8x8dct=1 / cqm=0 / deadzone=21,11 / fast_pskip=0 / chroma_qp_offset=-3 / threads=6 / lookahead_threads=1 / sliced_threads=0 / nr=0 / decimate=1 / interlaced=0 / bluray_compat=0 / constrained_intra=0 / fgo=0 / bframes=12 / b_pyramid=2 / b_adapt=2 / b_bias=0 / direct=3 / weightb=1 / open_gop=0 / weightp=2 / keyint=250 / keyint_min=23 / scenecut=40 / intra_refresh=0 / rc_lookahead=60 / rc=crf / mbtree=0 / crf=15.0000 / qcomp=0.60 / qpmin=0 / qpmax=69 / qpstep=4 / vbv_maxrate=62500 / vbv_bufsize=78125 / crf_max=0.0 / nal_hrd=none / filler=0 / ip_ratio=1.30 / pb_ratio=1.20 / aq=1:0.75
Language : English
Default : Yes
Forced : No
DURATION : 01:54:43.669000000
NUMBER_OF_FRAMES : 165043
NUMBER_OF_BYTES : 7212685314
_STATISTICS_WRITING_APP : mkvmerge v7.0.0 ('Where We Going') 64bit built on Jun 9 2014 15:16:27
_STATISTICS_WRITING_DATE_UTC : 2014-06-23 07:48:41
_STATISTICS_TAGS : BPS DURATION NUMBER_OF_FRAMES NUMBER_OF_BYTES
Matrix coefficients : BT.709
Audio #1
ID : 2
Format : DTS
Format/Info : Digital Theater Systems
Mode : 16
Format settings, Endianness : Big
Codec ID : A_DTS
Duration : 1h 54mn
Bit rate mode : Constant
Bit rate : 1 509 Kbps
Channel count : 3 channels
Channel positions : Front: L C R
Sampling rate : 48.0 KHz
Bit depth : 24 bits
Compression mode : Lossy
Stream size : 1.21 GiB (13%)
Title : |Одноголосый закадровый, А. Матвеев
Language : Russian
Default : Yes
Forced : No
Audio #2
ID : 3
Format : DTS
Format/Info : Digital Theater Systems
Mode : 16
Format settings, Endianness : Big
Codec ID : A_DTS
Duration : 1h 54mn
Bit rate mode : Constant
Bit rate : 1 509 Kbps
Channel count : 3 channels
Channel positions : Front: L C R
Sampling rate : 48.0 KHz
Bit depth : 24 bits
Compression mode : Lossy
Stream size : 1.21 GiB (13%)
Language : English
Default : No
Forced : No
Text #1
ID : 4
Format : UTF-8
Codec ID : S_TEXT/UTF8
Codec ID/Info : UTF-8 Plain Text
Language : Russian
Default : No
Forced : No
Text #2
ID : 5
Format : UTF-8
Codec ID : S_TEXT/UTF8
Codec ID/Info : UTF-8 Plain Text
Language : English
Default : No
Forced : No
Text #3
ID : 6
Format : UTF-8
Codec ID : S_TEXT/UTF8
Codec ID/Info : UTF-8 Plain Text
Default : Yes
Forced : No
Text #4
ID : 7
Format : UTF-8
Codec ID : S_TEXT/UTF8
Codec ID/Info : UTF-8 Plain Text
Language : English
Default : No
Forced : No
Menu
00:00:00.000 : en:00:00:00.000
00:06:32.600 : en:00:06:32.600
00:13:18.380 : en:00:13:18.380
00:18:09.630 : en:00:18:09.630
00:25:35.534 : en:00:25:35.534
00:31:17.083 : en:00:31:17.083
00:37:16.901 : en:00:37:16.901
00:46:10.601 : en:00:46:10.601
00:51:17.365 : en:00:51:17.365
00:55:07.846 : en:00:55:07.846
01:02:24.449 : en:01:02:24.449
01:08:19.178 : en:01:08:19.178
01:13:26.318 : en:01:13:26.318
01:21:13.952 : en:01:21:13.952
01:27:09.933 : en:01:27:09.933
01:32:20.117 : en:01:32:20.117
01:39:37.805 : en:01:39:37.805
01:48:59.032 : en:01:48:59.032
Скриншоты
Source vs Encode



Скачать

Скачать торрент!

Как скачивать? · Что такое торрент? · Рейтинг и ограничения

Сайт не распространяет и не хранит электронные версии произведений, а лишь предоставляет доступ к создаваемому пользователями каталогу ссылок на торрент-файлы, которые содержат только списки хеш-сумм

[Профиль] [ЛС]
Показать сообщения:    
Ответить на тему

Текущее время: Сегодня 06:13

Часовой пояс: GMT + 4



Вы не можете начинать темы
Вы не можете отвечать на сообщения
Вы не можете редактировать свои сообщения
Вы не можете удалять свои сообщения
Вы не можете голосовать в опросах
Вы не можете прикреплять файлы к сообщениям
Вы не можете скачивать файлы