Роковая страсть / The Immigrant (Джеймс Грэй / James Gray) [2013, США, драма, мелодрама, BDRip 720p] MVO (R5) + MVO (Baibako) + Sub Rus + Original Eng

Ответить на тему
 
Автор Сообщение

user ®

Стаж: 7 лет 7 месяцев

Сообщений: 20008

Пост Пост: #1 от 03-Июл-2014 17:45

[Цитировать]

Роковая страстьThe Immigrant
Страна: США
Жанр: драма, мелодрама
Год выпуска: 2013
Продолжительность: 01:57:26
Перевод: Профессиональный (многоголосый закадровый) R5
Перевод 2: Профессиональный (многоголосый закадровый) Baibako
Cубтитры: русские (from DVD9 R5)
Cубтитры 2: русские (Notabenoid)
Cубтитры 3: еnglish (forced)
Оригинальная аудиодорожка: английская
Режиссер: Джеймс Грэй / James Gray
В ролях: Марион Котийяр, Хоакин Феникс, Джереми Реннер, Дагмара Доминчик, Джики Шнии, Елена Соловей, Майя Вампушис, Илья Волох, Анджела Сарафян, Энтони Короне
Описание: 1921 г. Эва с сестрой Магдой покидают родную Польшу в поисках Земли обетованной, которой им представляется Нью-Йорк. По прибытии Магду, заболевшую туберкулезом, помещают в карантин. Одинокая и растерянная Эва попадает в сети бесстыдного сутенера Бруно. Чтобы спасти сестру она готова на все жертвы и соглашается стать проституткой. Появление иллюзиониста Орландо, двоюродного брата Бруно, возвращает девушке уверенность и надежду на лучшие дни. Но она забыла о ревности Бруно…

Сэмпл: http://sendfile.su/994866
Тип релиза: BDRip 720p [Роковая страсть / The Immigrant (2013) 1080p BD-Remux hdclub]
Контейнер: MKV
Видео: AVC, 1280 x 534 (2,40:1), 4913 kbps, 23,976 fps, 0.300 bpp
Аудио: AC3, 6ch, 48 kHz, 448 kbps, 16 bit
Аудио 2: AC3, 6ch, 48 kHz, 384 kbps, 16 bit
Аудио 3: AC3, 6ch, 48 kHz, 448 kbps, 16 bit
Формат субтитров: softsub (SRT)
MediaInfo
Уникальный идентификатор : 188033932989249484533765221361126599730 (0x8D7604A9715258C79393FE335731EC32)
Полное имя : F:\Films\Rokstr\Rokstr.mkv
Формат : Matroska
Версия формата : Version 2
Размер файла : 5,08 Гбайт
Продолжительность : 1 ч. 57 м.
Общий поток : 6192 Кбит/сек
Дата кодирования : UTC 2014-06-26 11:38:45
Программа кодирования : mkvmerge v6.9.1 ('Blue Panther') 32bit built on Apr 18 2014 18:15:44
Библиотека кодирования : libebml v1.3.0 + libmatroska v1.4.1
Видео
Идентификатор : 1
Формат : AVC
Формат/Информация : Advanced Video Codec
Профиль формата : High@L4.1
Параметр CABAC формата : Да
Параметр ReFrames формата : 8 кадров
Идентификатор кодека : V_MPEG4/ISO/AVC
Продолжительность : 1 ч. 57 м.
Битрейт : 4913 Кбит/сек
Ширина : 1280 пикселей
Высота : 534 пикселя
Соотношение сторон : 2,40:1
Режим частоты кадров : Постоянный
Частота кадров : 23,976 кадра/сек
Цветовое пространство : YUV
Субдискретизация насыщенности : 4:2:0
Битовая глубина : 8 бит
Тип развёртки : Прогрессивная
Бит/(Пиксели*Кадры) : 0.300
Размер потока : 3,93 Гбайт (77%)
Библиотека кодирования : x264 core 138 r2358 9e941d1
Настройки программы : cabac=1 / ref=8 / deblock=1:-2:-1 / analyse=0x3:0x133 / me=umh / subme=9 / psy=1 / psy_rd=1.00:0.05 / mixed_ref=0 / me_range=36 / chroma_me=1 / trellis=2 / 8x8dct=1 / cqm=0 / deadzone=21,11 / fast_pskip=0 / chroma_qp_offset=-3 / threads=3 / lookahead_threads=1 / sliced_threads=0 / nr=0 / decimate=0 / interlaced=0 / bluray_compat=0 / constrained_intra=0 / bframes=12 / b_pyramid=2 / b_adapt=2 / b_bias=0 / direct=1 / weightb=1 / open_gop=0 / weightp=2 / keyint=240 / keyint_min=23 / scenecut=40 / intra_refresh=0 / rc=2pass / mbtree=0 / bitrate=4913 / ratetol=1.0 / qcomp=0.70 / qpmin=10 / qpmax=69 / qpstep=4 / cplxblur=20.0 / qblur=0.5 / ip_ratio=1.40 / pb_ratio=1.30 / aq=1:1.00
Язык : English
Default : Да
Forced : Нет
Аудио #1
Идентификатор : 2
Формат : AC-3
Формат/Информация : Audio Coding 3
Расширение режима : CM (complete main)
Параметр Endianness формата : Big
Идентификатор кодека : A_AC3
Продолжительность : 1 ч. 57 м.
Вид битрейта : Постоянный
Битрейт : 448 Кбит/сек
Каналы : 6 каналов
Расположение каналов : Front: L C R, Side: L R, LFE
Частота : 48,0 КГц
Битовая глубина : 16 бит
Метод сжатия : С потерями
Размер потока : 376 Мбайт (7%)
Заголовок : Многоголосый закадровый, R5
Язык : Russian
Default : Нет
Forced : Да
Аудио #2
Идентификатор : 3
Формат : AC-3
Формат/Информация : Audio Coding 3
Расширение режима : CM (complete main)
Параметр Endianness формата : Big
Идентификатор кодека : A_AC3
Продолжительность : 1 ч. 57 м.
Вид битрейта : Постоянный
Битрейт : 384 Кбит/сек
Каналы : 6 каналов
Расположение каналов : Front: L C R, Side: L R, LFE
Частота : 48,0 КГц
Битовая глубина : 16 бит
Метод сжатия : С потерями
Размер потока : 323 Мбайт (6%)
Заголовок : Профессиональное (многоголосое) [Baibako]
Язык : Russian
Default : Нет
Forced : Да
Аудио #3
Идентификатор : 4
Формат : AC-3
Формат/Информация : Audio Coding 3
Расширение режима : CM (complete main)
Параметр Endianness формата : Big
Идентификатор кодека : A_AC3
Продолжительность : 1 ч. 57 м.
Вид битрейта : Постоянный
Битрейт : 448 Кбит/сек
Каналы : 6 каналов
Расположение каналов : Front: L C R, Side: L R, LFE
Частота : 48,0 КГц
Битовая глубина : 16 бит
Метод сжатия : С потерями
Размер потока : 376 Мбайт (7%)
Заголовок : английский
Язык : English
Default : Нет
Forced : Да
Текст #1
Идентификатор : 5
Формат : UTF-8
Идентификатор кодека : S_TEXT/UTF8
Идентификатор кодека/Информация : UTF-8 Plain Text
Заголовок : русские, R5
Язык : Russian
Default : Нет
Forced : Да
Текст #2
Идентификатор : 6
Формат : UTF-8
Идентификатор кодека : S_TEXT/UTF8
Идентификатор кодека/Информация : UTF-8 Plain Text
Заголовок : русские, Notabenoid
Язык : Russian
Default : Нет
Forced : Да
Текст #3
Идентификатор : 7
Формат : UTF-8
Идентификатор кодека : S_TEXT/UTF8
Идентификатор кодека/Информация : UTF-8 Plain Text
Заголовок : английские
Default : Да
Forced : Нет
Меню
00:00:00.000 : en:00:00:00.000
00:09:16.138 : en:00:09:16.138
00:16:24.108 : en:00:16:24.108
00:21:06.431 : en:00:21:06.431
00:24:58.663 : en:00:24:58.663
00:33:26.421 : en:00:33:26.421
00:41:09.884 : en:00:41:09.884
00:45:32.521 : en:00:45:32.521
00:53:12.063 : en:00:53:12.063
01:02:19.318 : en:01:02:19.318
01:10:33.103 : en:01:10:33.103
01:16:32.337 : en:01:16:32.337
01:24:18.344 : en:01:24:18.344
01:32:26.207 : en:01:32:26.207
01:41:25.662 : en:01:41:25.662
01:49:50.959 : en:01:49:50.959
Скриншоты Возрастные ограничения
16+ : зрителям, достигшим 16 лет
Рейтинг МРАА: лицам до 17 лет обязательно присутствие взрослого
Скачать

Скачать торрент!

Как скачивать? · Что такое торрент? · Рейтинг и ограничения

Сайт не распространяет и не хранит электронные версии произведений, а лишь предоставляет доступ к создаваемому пользователями каталогу ссылок на торрент-файлы, которые содержат только списки хеш-сумм

[Профиль] [ЛС]
Показать сообщения:    
Ответить на тему

Текущее время: Сегодня 02:17

Часовой пояс: GMT + 4



Вы не можете начинать темы
Вы не можете отвечать на сообщения
Вы не можете редактировать свои сообщения
Вы не можете удалять свои сообщения
Вы не можете голосовать в опросах
Вы не можете прикреплять файлы к сообщениям
Вы не можете скачивать файлы